<?xml version="1.0" standalone="no"?>
<!DOCTYPE svg PUBLIC "-//W3C//DTD SVG 1.1//EN" "http://www.w3.org/Graphics/SVG/1.1/DTD/svg11.dtd" >
<svg xmlns="http://www.w3.org/2000/svg" xmlns:xlink="http://www.w3.org/1999/xlink" version="1.1">
<metadata>
Created by FontForge 20201107 at Wed Jan 31 22:01:50 2024
 By 
(c) 2014 - 2018 Adobe Systems Incorporated (http://www.adobe.com/), with Reserved Font Name `Source'.
</metadata>
<defs>
<font id="SourceSerifPro-Bold" horiz-adv-x="0" >
  <font-face 
    font-family="Source Serif Pro"
    font-weight="700"
    font-stretch="normal"
    units-per-em="2048"
    panose-1="2 4 8 3 5 4 5 2 2 4"
    ascent="1495"
    descent="-553"
    x-height="989"
    cap-height="1346"
    bbox="-594 -664 4745 2101"
    underline-thickness="102"
    underline-position="-153"
    unicode-range="U+0021-1F16B"
  />
<missing-glyph horiz-adv-x="1310" 
d="M164 0v1346h983v-1346h-983zM424 131h463l-232 389zM315 1092v-838l250 420zM748 674l247 -420v838zM424 1214l231 -389l232 389h-463z" />
    <glyph glyph-name="f_f" unicode="ff" horiz-adv-x="1386" 
d="M61 0v96l113 23q4 208 4 311v420h-133v121l137 16q17 144 60.5 233t109.5 152q143 135 338 135q91 0 154.5 -33.5t79.5 -107.5q0 -58 -31.5 -93.5t-93.5 -35.5t-107 31t-82 98l-18 29q-17 -17 -37 -49q-63 -110 -57 -357h329q19 144 62 233.5t108 149.5q143 135 342 135
q210 0 246 -145q-2 -60 -41 -98.5t-106 -38.5q-104 0 -185 145l-16 25q-24 -24 -35 -43q-66 -115 -57 -363h219v-139h-215v-420q0 -201 2 -301l158 -33v-96h-602v96l112 23q4 208 4 311v420h-319v-420q0 -201 2 -301l137 -33v-96h-582z" />
    <glyph glyph-name="f_i" unicode="fi" horiz-adv-x="1288" 
d="M61 0v96l113 23q4 208 4 311v420h-133v121l137 16q19 143 70 231t133 158q155 131 420 131q118 0 197 -43t92 -131q-2 -60 -38.5 -97.5t-99.5 -37.5q-54 0 -97.5 36.5t-86.5 117.5l-43 69q-51 -25 -96 -67q-67 -65 -96 -141.5t-33 -223.5h405l203 33l35 -23l-6 -290v-279
q0 -213 2 -313l102 -21v-96h-545v96l111 25q2 98 2 309v148q0 149 -6 272h-303v-420q0 -101 4 -309l119 -25v-96h-566z" />
    <glyph glyph-name="f_l" unicode="fl" horiz-adv-x="1304" 
d="M61 0v96l113 23q4 208 4 311v420h-133v121l137 16q18 146 63 237t115 152q148 131 345 131q158 0 221 -77l198 57l33 -21l-8 -286v-750q0 -105 4 -313l104 -21v-96h-542v96l104 23q4 208 4 311v807q-121 6 -200 141l-11 21q-32 -28 -47 -51q-41 -62 -55.5 -146.5
t-11.5 -212.5h221v-139h-215v-420q0 -201 2 -301l137 -33v-96h-582z" />
    <glyph glyph-name="f_f_i" unicode="ffi" horiz-adv-x="1933" 
d="M61 0v96l113 23q4 208 4 311v420h-133v121l137 16q17 144 60.5 233t109.5 152q143 135 338 135q91 0 154.5 -33.5t79.5 -107.5q0 -58 -31.5 -93.5t-93.5 -35.5t-107 31t-82 98l-18 29q-17 -17 -37 -49q-63 -110 -57 -357h329q20 142 71 230t132 157q155 131 420 131
q118 0 197 -43t92 -131q-2 -60 -38 -97.5t-99 -37.5q-54 0 -98.5 36.5t-86.5 117.5l-43 69q-51 -25 -96 -67q-67 -65 -96 -141.5t-33 -223.5h405l203 33l35 -23l-6 -290v-279q0 -213 2 -313l102 -21v-96h-544v96l110 25q2 98 2 309v148q0 149 -6 272h-303v-420
q0 -101 4 -309l119 -25v-96h-565v96l112 23q4 208 4 311v420h-319v-420q0 -201 2 -301l137 -33v-96h-582z" />
    <glyph glyph-name="f_f_l" unicode="ffl" horiz-adv-x="1951" 
d="M61 0v96l113 23q4 208 4 311v420h-133v121l137 16q17 144 60.5 233t109.5 152q143 135 338 135q91 0 154.5 -33.5t79.5 -107.5q0 -58 -31.5 -93.5t-93.5 -35.5t-107 31t-82 98l-18 29q-17 -17 -37 -49q-63 -110 -57 -357h329q19 145 64 236t115 151q148 131 344 131
q158 0 221 -77l198 57l33 -21l-8 -286v-750q0 -105 4 -313l105 -21v-96h-543v96l104 23q4 208 4 311v807q-121 6 -200 141l-11 21q-32 -28 -47 -51q-41 -62 -55.5 -146.5t-11.5 -212.5h221v-139h-215v-420q0 -201 2 -301l137 -33v-96h-581v96l112 23q4 208 4 311v420h-319
v-420q0 -201 2 -301l137 -33v-96h-582z" />
    <glyph glyph-name="f_t" unicode="ft" horiz-adv-x="1396" 
d="M178 430v420h-133v121l137 16q17 144 60.5 233t109.5 152q143 135 342 135q210 0 246 -145q-2 -60 -41 -98.5t-106 -38.5q-104 0 -185 145l-16 25q-24 -24 -35 -43q-66 -115 -57 -363h364l107 289h178l-4 -289h213v-139h-215v-574q0 -69 28.5 -104t75.5 -35q53 0 113 45
l49 -49q-84 -164 -299 -164q-295 0 -295 285q0 35 1 99.5t1 105.5v391h-313v-420q0 -201 2 -301l158 -33v-96h-603v96l113 23q4 208 4 311z" />
    <glyph glyph-name=".notdef" horiz-adv-x="1310" 
d="M164 0v1346h983v-1346h-983zM424 131h463l-232 389zM315 1092v-838l250 420zM748 674l247 -420v838zM424 1214l231 -389l232 389h-463z" />
    <glyph glyph-name=".null" 
 />
    <glyph glyph-name="nonmarkingreturn" horiz-adv-x="682" 
 />
    <glyph glyph-name="space" unicode="&#xa0;" horiz-adv-x="438" 
 />
    <glyph glyph-name="space" unicode=" " horiz-adv-x="438" 
 />
    <glyph glyph-name="exclam" unicode="!" horiz-adv-x="710" 
d="M354 -31q-80 0 -135 55t-55 134q0 78 55.5 134t134.5 56q81 0 137 -55.5t56 -134.5q0 -80 -55.5 -134.5t-137.5 -54.5zM354 1368q91 0 144 -50.5t53 -143.5q0 -140 -90 -467l-51 -197h-109l-51 197q-90 320 -90 467q0 94 51.5 144t142.5 50z" />
    <glyph glyph-name="quotedbl" unicode="&#x22;" horiz-adv-x="915" 
d="M240 1493q77 0 119 -42.5t42 -127.5q0 -33 -7 -81t-14 -81.5t-17.5 -81t-12.5 -55.5l-53 -215h-111l-53 215q0 1 -12 53.5t-18.5 83.5t-13.5 80t-7 82q0 85 41.5 127.5t116.5 42.5zM672 1493q77 0 119.5 -43t42.5 -127q0 -33 -7 -80.5t-14 -82t-18 -80.5t-13 -56
l-53 -215h-111l-53 215q0 1 -12 53.5t-18.5 83.5t-13.5 80t-7 82q0 85 41.5 127.5t116.5 42.5z" />
    <glyph glyph-name="numbersign" unicode="#" horiz-adv-x="1161" 
d="M426 549h285l32 217h-284zM178 0l49 326h-188v223h221l33 217h-187v223h222l49 328h166l-49 -328h284l49 328h166l-49 -328h180v-223h-215l-32 -217h178v-223h-211l-49 -326h-168l49 326h-283l-49 -326h-166z" />
    <glyph glyph-name="dollar" unicode="$" horiz-adv-x="1110" 
d="M498 -236v205q-186 6 -289 84t-105 211q38 96 125 96q61 0 95 -32t47 -109l24 -131q33 -6 103 -10v440l-15 6q-372 121 -372 406q0 159 105.5 265t293.5 124v188h127v-186q156 -11 251 -85.5t105 -197.5q-8 -52 -40.5 -76t-73.5 -24q-61 0 -103.5 36t-58.5 132l-17 100
q-14 2 -37.5 4t-25.5 2v-419h2q210 -67 303.5 -171t93.5 -251q0 -157 -110 -265t-301 -131v-211h-127zM772 283q0 72 -32 113.5t-115 76.5v-381q69 20 108 70.5t39 120.5zM365 1024q0 -69 33.5 -112.5t111.5 -75.5v366q-145 -38 -145 -178z" />
    <glyph glyph-name="percent" unicode="%" horiz-adv-x="1789" 
d="M496 -66l-97 66l916 1350l96 -66zM315 901q0 -103 8 -174t23.5 -107.5t33.5 -51.5t42 -15q32 0 54.5 26.5t38 106.5t15.5 215q0 136 -15.5 216.5t-38 107t-54.5 26.5q-24 0 -42 -15t-33.5 -52t-23.5 -108t-8 -175zM422 1321q133 0 223 -107t90 -313q0 -104 -25.5 -185.5
t-69.5 -131t-99.5 -74.5t-118.5 -25q-134 0 -222.5 106t-88.5 310q0 207 88.5 313.5t222.5 106.5zM1262 397q0 -136 15 -216t37 -106t54 -26q24 0 42.5 15t34 52t24 108t8.5 173q0 103 -8.5 174.5t-24 108.5t-34 52.5t-42.5 15.5q-32 0 -54 -26.5t-37 -107t-15 -217.5z
M1368 817q133 0 223 -107t90 -313q0 -203 -90 -309t-223 -106q-134 0 -222.5 105.5t-88.5 309.5q0 207 88.5 313.5t222.5 106.5z" />
    <glyph glyph-name="ampersand" unicode="&#x26;" horiz-adv-x="1476" 
d="M543 928q32 -45 67 -84q133 147 133 291q0 70 -36 110.5t-99 40.5q-61 0 -99 -44t-38 -112q0 -95 72 -202zM1405 -2q-139 -29 -201 -29q-93 0 -163.5 24t-137.5 83q-29 29 -43 41q-141 -148 -393 -148q-197 0 -308.5 103.5t-111.5 257.5q0 121 74.5 215.5t236.5 167.5
l-10 10q-123 162 -123 324q0 150 105.5 237.5t281.5 87.5q168 0 261.5 -72t93.5 -194q0 -102 -72.5 -179t-230.5 -145q99 -110 151 -168q44 -49 114 -122.5t75 -79.5q84 148 126 344l-157 24v92h452v-92l-143 -22q-37 -122 -86 -219t-123 -199q50 -54 148 -156l200 -43z
M610 403q-73 92 -196 242q-88 -98 -88 -229q0 -123 80 -199t200 -76q108 0 185 47q-66 72 -181 215z" />
    <glyph glyph-name="quotesingle" unicode="'" horiz-adv-x="483" 
d="M240 1493q77 0 119 -42.5t42 -127.5q0 -33 -7 -81t-14 -81.5t-17.5 -81t-12.5 -55.5l-53 -215h-111l-53 215q0 1 -12 53.5t-18.5 83.5t-13.5 80t-7 82q0 85 41.5 127.5t116.5 42.5z" />
    <glyph glyph-name="parenleft" unicode="(" horiz-adv-x="772" 
d="M393 569q0 -237 74 -425.5t248 -403.5l-97 -84q-468 368 -468 913q0 546 468 914l97 -84q-173 -214 -247.5 -403.5t-74.5 -426.5z" />
    <glyph glyph-name="parenright" unicode=")" horiz-adv-x="772" 
d="M379 569q0 237 -74.5 426.5t-247.5 403.5l97 84q469 -369 469 -914q0 -544 -469 -913l-97 84q174 215 248 403.5t74 425.5z" />
    <glyph glyph-name="asterisk" unicode="*" horiz-adv-x="882" 
d="M440 1507q50 0 77.5 -32t27.5 -80q0 -49 -43 -193l-19 -63l58 37q142 102 215 102q40 0 69 -27t29 -77q0 -63 -66 -88.5t-210 -28.5l-68 -2l55 -43q97 -75 133.5 -118.5t36.5 -88.5q0 -37 -29.5 -67.5t-70.5 -30.5q-58 0 -93 53.5t-79 179.5l-25 61l-22 -61
q-43 -127 -81.5 -179t-92.5 -52q-42 0 -71.5 31t-29.5 67q0 48 40.5 93t133.5 112l54 43l-66 2q-149 0 -213.5 26.5t-64.5 92.5q0 49 30.5 76.5t69.5 27.5q40 0 90.5 -25.5t124.5 -78.5l57 -37l-18 63q-41 137 -41 193q0 48 26.5 80t75.5 32z" />
    <glyph glyph-name="plus" unicode="+" horiz-adv-x="1114" 
d="M463 147v424h-402v181h402v413h188v-413h404v-181h-404v-424h-188z" />
    <glyph glyph-name="comma" unicode="," horiz-adv-x="614" 
d="M487 115q0 -101 -38 -192t-100 -156t-134.5 -111t-148.5 -70l-29 86q195 104 272 279l-71 37q-115 63 -115 172q0 76 51.5 127t128.5 51q89 0 154 -57q30 -76 30 -166z" />
    <glyph glyph-name="hyphen" unicode="&#x2010;" horiz-adv-x="694" 
d="M82 428v184h530v-184h-530z" />
    <glyph glyph-name="hyphen" unicode="&#xad;" horiz-adv-x="694" 
d="M82 428v184h530v-184h-530z" />
    <glyph glyph-name="hyphen" unicode="-" horiz-adv-x="694" 
d="M82 428v184h530v-184h-530z" />
    <glyph glyph-name="period" unicode="." horiz-adv-x="614" 
d="M307 -31q-77 0 -130.5 53.5t-53.5 129.5t53.5 131t130.5 55t131 -55t54 -131t-54 -129.5t-131 -53.5z" />
    <glyph glyph-name="slash" unicode="/" horiz-adv-x="792" 
d="M18 -328l547 1782h209l-547 -1782h-209z" />
    <glyph glyph-name="zero" unicode="0" horiz-adv-x="1110" 
d="M383 645q0 -167 12.5 -282t37 -176t54 -86t68.5 -25t68.5 25.5t54 86.5t38 176t13.5 281t-13.5 282t-38 177t-54 87t-68.5 26t-68.5 -25.5t-54 -87t-37 -176.5t-12.5 -283zM555 1323q78 0 148 -24.5t132 -78t107.5 -132t71.5 -192t26 -251.5q0 -171 -39.5 -304
t-108 -212.5t-154 -119.5t-183.5 -40q-78 0 -148.5 24.5t-131.5 77.5t-105.5 131t-70 191.5t-25.5 251.5q0 172 38.5 304.5t106 212.5t152.5 120.5t184 40.5z" />
    <glyph glyph-name="one" unicode="1" horiz-adv-x="1110" 
d="M201 1200l510 113l28 -21l-8 -291v-575q0 -180 2 -272l238 -58v-96h-821v96l249 58q2 90 2 272v674l-200 -19v119z" />
    <glyph glyph-name="two" unicode="2" horiz-adv-x="1110" 
d="M106 0v182q189 185 271 269q158 159 225.5 271.5t67.5 244.5q0 117 -56.5 183.5t-152.5 66.5q-27 0 -51 -3l-27 -145q-25 -174 -152 -174q-43 0 -78.5 23t-54.5 61q2 82 41 148t104 108.5t149.5 65t180.5 22.5q213 0 319.5 -97t106.5 -257q0 -146 -113.5 -280
t-375.5 -312q-14 -10 -78 -54.5t-100 -70.5h694v-252h-920z" />
    <glyph glyph-name="three" unicode="3" horiz-adv-x="1110" 
d="M373 729h59q250 0 250 254q0 116 -54 175t-155 59q-18 0 -39 -3l-20 -133q-22 -141 -152 -141q-78 0 -115 66q4 81 38 143t90 99.5t126.5 56t151.5 18.5q219 0 335 -91t116 -237q0 -104 -72 -189t-219 -124q174 -31 251.5 -116t77.5 -224q0 -165 -136.5 -269t-373.5 -104
q-212 0 -325 87.5t-121 250.5q18 47 52.5 69.5t74.5 22.5q66 0 102.5 -40.5t49.5 -141.5l18 -137q16 -4 47 -4q277 0 277 276q0 127 -67.5 194.5t-195.5 67.5h-71v115z" />
    <glyph glyph-name="four" unicode="4" horiz-adv-x="1110" 
d="M1055 274h-189v-274h-291v274h-532v187l596 846h227v-807h189v-226zM213 500h362v520z" />
    <glyph glyph-name="five" unicode="5" horiz-adv-x="1110" 
d="M1053 393q0 -137 -72 -234t-193 -143.5t-278 -46.5q-194 0 -306.5 90.5t-121.5 247.5q17 44 52.5 68t78.5 24q64 0 99.5 -40.5t47.5 -133.5l17 -139q31 -10 78 -10q114 0 184 76t70 206q0 140 -65 215.5t-183 75.5q-88 0 -195 -22l-57 41l43 622h749v-252h-634l-19 -258
q100 19 199 19q238 0 372 -105t134 -301z" />
    <glyph glyph-name="six" unicode="6" horiz-adv-x="1110" 
d="M553 76q73 0 119.5 82t46.5 237q0 128 -43 199.5t-121 71.5q-83 0 -156 -54q-8 -60 -8 -141q0 -197 42.5 -296t119.5 -99zM1047 426q0 -88 -27.5 -163.5t-75 -128.5t-110 -91t-132.5 -56t-143 -18q-228 0 -365 146t-137 407q0 156 65 295.5t180.5 245t281.5 174.5t360 86
l12 -102q-231 -60 -362.5 -183.5t-177.5 -320.5q113 88 270 88q175 0 268 -106t93 -273z" />
    <glyph glyph-name="seven" unicode="7" horiz-adv-x="1110" 
d="M223 20l596 1018h-710v252h917v-155l-481 -1135h-301z" />
    <glyph glyph-name="eight" unicode="8" horiz-adv-x="1110" 
d="M387 1051q0 -74 50.5 -136t189.5 -131q55 67 76.5 123t21.5 125q0 79 -45 130.5t-121 51.5q-70 0 -121 -45t-51 -118zM90 279q0 201 268 315q-243 134 -243 358q0 168 127 269.5t325 101.5q203 0 307.5 -84t104.5 -213q0 -176 -248 -291q148 -74 220.5 -170.5
t72.5 -224.5q0 -170 -132.5 -270.5t-363.5 -100.5q-215 0 -326.5 82.5t-111.5 227.5zM358 295q0 -95 55 -157t140 -62t131.5 53.5t46.5 130.5q0 85 -58.5 150t-207.5 133q-57 -60 -82 -117.5t-25 -130.5z" />
    <glyph glyph-name="nine" unicode="9" horiz-adv-x="1110" 
d="M381 915q0 -138 53.5 -212t147.5 -74q78 0 131 37q6 62 6 133q0 158 -21.5 252.5t-57 130t-89.5 35.5q-74 0 -122 -75.5t-48 -226.5zM1049 770q0 -316 -229 -532t-630 -279l-20 104q246 78 368.5 193.5t159.5 306.5q-95 -67 -233 -67q-180 0 -294 103t-114 286
q0 98 40 181.5t107.5 139t155.5 86.5t185 31q243 0 373.5 -145.5t130.5 -407.5z" />
    <glyph glyph-name="colon" unicode=":" horiz-adv-x="614" 
d="M307 664q-77 0 -130.5 53t-53.5 129t53.5 131t130.5 55t131 -55t54 -131q0 -75 -53.5 -128.5t-131.5 -53.5zM307 -31q-77 0 -130.5 53.5t-53.5 129.5t53.5 131t130.5 55t131 -55t54 -131t-54 -129.5t-131 -53.5z" />
    <glyph glyph-name="semicolon" unicode=";" horiz-adv-x="614" 
d="M307 664q-77 0 -130.5 53t-53.5 129t53.5 131t130.5 55t131 -55t54 -131q0 -75 -53.5 -128.5t-131.5 -53.5zM487 115q0 -101 -38 -192t-100 -156t-134.5 -111t-148.5 -70l-29 86q195 104 272 279l-71 37q-115 63 -115 172q0 76 51.5 127t128.5 51q89 0 154 -57
q30 -76 30 -166z" />
    <glyph glyph-name="less" unicode="&#x3c;" horiz-adv-x="1114" 
d="M78 586v153l856 443l88 -176l-703 -342l703 -345l-88 -176z" />
    <glyph glyph-name="equal" unicode="=" horiz-adv-x="1114" 
d="M1055 356h-994v181h994v-181zM1055 786h-994v181h994v-181z" />
    <glyph glyph-name="greater" unicode="&#x3e;" horiz-adv-x="1114" 
d="M1036 739v-153l-856 -443l-88 176l703 345l-703 342l88 176z" />
    <glyph glyph-name="question" unicode="?" horiz-adv-x="919" 
d="M352 -31q-80 0 -136 55t-56 134q0 78 56.5 134t135.5 56q81 0 136 -55.5t55 -134.5q0 -80 -55 -134.5t-136 -54.5zM801 913q0 -109 -53 -174t-173 -102l-88 -27q-50 -14 -65.5 -28.5t-18.5 -55.5l-4 -57h-116l-25 74q-35 106 -35 172q0 54 37.5 85t124.5 52l156 35
q54 14 76 34t22 58q0 25 -10 55l-297 45q-105 16 -146 52.5t-41 97.5q0 59 37.5 96t116.5 59q122 -25 236.5 -95t190 -172t75.5 -204z" />
    <glyph glyph-name="at" unicode="@" horiz-adv-x="1822" 
d="M739 446q0 -92 34.5 -139t92.5 -47q61 0 125 72l82 477q-39 39 -86 39q-54 0 -110.5 -50t-97 -145t-40.5 -207zM1262 82q-95 0 -159 48.5t-87 129.5q-123 -178 -293 -178q-104 0 -173 76.5t-69 220.5q0 142 67.5 283t184 234t244.5 93q116 0 192 -82l121 66l53 -35
l-94 -537q-17 -103 1 -141.5t79 -38.5q40 0 84 32t83 89.5t64 149t25 198.5q0 257 -150.5 401t-416.5 144q-171 0 -316.5 -68t-241 -180.5t-149 -257.5t-53.5 -301q0 -289 165.5 -449.5t444.5 -160.5q166 0 320 51l31 -92q-205 -90 -404 -90q-219 0 -382.5 92t-249 252.5
t-85.5 367.5q0 144 40.5 282t120.5 257t190.5 208.5t260.5 141t320 51.5q166 0 300 -51t220.5 -139.5t132.5 -206.5t46 -254q0 -135 -40 -250.5t-106 -192t-149.5 -120t-171.5 -43.5z" />
    <glyph glyph-name="A" unicode="A" horiz-adv-x="1382" 
d="M594 1032l-170 -522h336zM18 0v111l166 24l416 1213h211l420 -1227l125 -15v-106h-633v106l158 21l-84 264h-412l-82 -256l156 -24v-111h-441z" />
    <glyph glyph-name="B" unicode="B" horiz-adv-x="1333" 
d="M225 643v59q0 345 -4 517l-153 16v111h661q247 0 362 -86.5t115 -231.5q0 -114 -79.5 -193t-268.5 -114q428 -52 428 -344q0 -55 -16.5 -105t-61 -101t-113.5 -87.5t-183.5 -60t-260.5 -23.5h-583v111l153 16q4 168 4 516zM633 649h-70q0 -362 4 -530h66
q144 0 222.5 66.5t78.5 195.5q0 139 -74 203.5t-227 64.5zM639 1227h-72q-4 -154 -4 -469h58q253 0 253 246q0 114 -57.5 168.5t-177.5 54.5z" />
    <glyph glyph-name="C" unicode="C" horiz-adv-x="1273" 
d="M834 80q83 0 172 39l57 262h156l-9 -315q-198 -105 -430 -105q-150 0 -278 45t-225 131.5t-152 224t-55 312.5q0 141 38.5 259t106 200t159.5 139.5t198 84.5t223 27q217 0 401 -102l8 -317h-155l-60 268q-69 35 -147 35q-84 0 -156 -35t-130 -105t-91 -187t-33 -269
t32 -268t88 -185.5t127 -104t155 -34.5z" />
    <glyph glyph-name="D" unicode="D" horiz-adv-x="1443" 
d="M225 641v70q0 340 -4 508l-153 16v111h608q327 0 512.5 -179t185.5 -491q0 -317 -198 -496.5t-537 -179.5h-571v111l153 16q4 166 4 514zM569 643q0 -352 4 -524h68q176 0 277.5 146t101.5 409q0 266 -100.5 409.5t-276.5 143.5h-70q-4 -170 -4 -516v-68z" />
    <glyph glyph-name="E" unicode="E" horiz-adv-x="1218" 
d="M225 635v76q0 340 -4 508l-153 16v111h1044l14 -353h-170l-41 238h-342q-4 -156 -4 -475h222l24 159h119v-440h-119l-24 160h-222q0 -354 4 -520h383l41 237h170l-14 -352h-1085v111l153 16q4 166 4 508z" />
    <glyph glyph-name="F" unicode="F" horiz-adv-x="1187" 
d="M225 635v76q0 340 -4 508l-153 16v111h1058l15 -353h-170l-41 238h-357q-4 -156 -4 -475h228l24 159h119v-460h-119l-26 180h-226q0 -346 4 -506l183 -18v-111h-688v111l153 16q4 166 4 508z" />
    <glyph glyph-name="G" unicode="G" horiz-adv-x="1382" 
d="M1241 168v-86q-211 -121 -463 -121q-320 0 -514 192t-194 523q0 326 194 517t539 191q217 0 395 -94l8 -319h-157l-60 266q-76 31 -147 31q-85 0 -157.5 -36t-130 -106.5t-90 -186t-32.5 -263.5q0 -149 31.5 -265t87.5 -187.5t128.5 -108.5t158.5 -37q44 0 77 8v88
q0 116 -4 354l-184 25v111h625v-111l-107 -14q-4 -246 -4 -371z" />
    <glyph glyph-name="H" unicode="H" horiz-adv-x="1566" 
d="M221 635v76q0 338 -4 508l-149 16v111h645v-111l-144 -14q-4 -168 -4 -469h436q0 313 -4 469l-143 14v111h647v-111l-151 -16q-4 -166 -4 -508v-76q0 -340 4 -508l151 -16v-111h-647v111l143 14q4 168 4 506h-436q0 -344 4 -506l144 -14v-111h-645v111l149 16
q4 166 4 508z" />
    <glyph glyph-name="I" unicode="I" horiz-adv-x="794" 
d="M225 635v76q0 340 -4 508l-153 16v111h659v-111l-154 -16q-4 -166 -4 -508v-74q0 -342 4 -510l154 -16v-111h-659v111l153 16q4 166 4 508z" />
    <glyph glyph-name="J" unicode="J" horiz-adv-x="808" 
d="M72 1235v111h682v-111l-158 -16q-2 -160 -2 -490v-213q0 -214 -21.5 -355.5t-70.5 -238.5q-59 -132 -173.5 -204t-256.5 -72q-177 0 -246 129q1 69 47 110t115 41q51 0 94 -26.5t92 -85.5l43 -52q45 83 45 314q0 83 -2 226t-6.5 406.5t-7.5 508.5z" />
    <glyph glyph-name="K" unicode="K" horiz-adv-x="1425" 
d="M225 635v76q0 340 -4 508l-153 16v111h645v-111l-156 -16q-4 -166 -4 -508v-68l459 567l-135 25v111h475v-111l-195 -25l-270 -323l403 -762l125 -14v-111h-592v111l99 10l-252 510l-117 -139q0 -242 4 -365l133 -16v-111h-622v111l153 16q4 166 4 508z" />
    <glyph glyph-name="L" unicode="L" horiz-adv-x="1187" 
d="M225 711q0 340 -4 508l-153 16v111h675v-111l-170 -16q-4 -168 -4 -508v-109q0 -315 4 -485h355l55 284h166l-21 -401h-1060v111l153 16q4 166 4 465v119z" />
    <glyph glyph-name="M" unicode="M" horiz-adv-x="1835" 
d="M37 0v111l199 24v1079l-181 21v111h541l334 -902l313 902h518v-111l-145 -16q-4 -168 -4 -508v-76q0 -340 4 -508l151 -16v-111h-653v111l150 18q2 94 2.5 255t1.5 208l4 452l-365 -1044h-157l-392 1047l11 -410v-500l168 -26v-111h-500z" />
    <glyph glyph-name="N" unicode="N" horiz-adv-x="1490" 
d="M893 1235v111h539v-111l-175 -27v-1212h-172l-720 999v-858l233 -26v-111h-541v111l174 24v1047l-28 39l-142 14v111h463l602 -828v690z" />
    <glyph glyph-name="O" unicode="O" horiz-adv-x="1437" 
d="M432 674q0 -131 16.5 -237t50 -187t89.5 -125.5t131 -44.5q76 0 132 44.5t89.5 126t49.5 187t16 236.5t-16 236t-49.5 186t-89.5 125.5t-132 44.5q-99 0 -165 -79t-94 -208t-28 -305zM719 1384q102 0 196.5 -27.5t177 -85.5t143.5 -140.5t96.5 -200t35.5 -256.5
q0 -172 -53.5 -310t-144.5 -224.5t-206.5 -132.5t-244.5 -46t-244.5 45t-206.5 131t-144.5 224.5t-53.5 312.5q0 171 54 308.5t145 224t206.5 132t243.5 45.5z" />
    <glyph glyph-name="P" unicode="P" horiz-adv-x="1255" 
d="M225 635v76q0 340 -4 508l-153 16v111h557q308 0 452 -106.5t144 -299.5q0 -72 -19 -134t-63 -116.5t-111 -93t-169 -60.5t-232 -22h-58q0 -248 4 -385l183 -18v-111h-688v111l153 16q4 166 4 508zM621 1227h-48q-4 -170 -4 -516v-82h60q132 0 201 84.5t69 228.5
q0 140 -71.5 212.5t-206.5 72.5z" />
    <glyph glyph-name="Q" unicode="Q" horiz-adv-x="1437" 
d="M432 674q0 -131 16.5 -237t50 -187t89.5 -125.5t131 -44.5q76 0 132 44.5t89.5 126t49.5 187t16 236.5t-16 236t-49.5 186t-89.5 125.5t-132 44.5q-99 0 -165 -79t-94 -208t-28 -305zM719 1384q102 0 196.5 -27.5t177 -85.5t143.5 -140.5t96.5 -200t35.5 -256.5
q0 -146 -39 -268.5t-107.5 -207.5t-157 -141t-192.5 -80q3 -114 64.5 -178.5t163.5 -64.5q86 0 147 24l45 -114q-103 -66 -282 -66q-208 0 -330 110.5t-133 293.5q-101 26 -186 81.5t-151 140t-103 205t-37 265.5q0 171 54 308.5t145 224t206.5 132t243.5 45.5z" />
    <glyph glyph-name="R" unicode="R" horiz-adv-x="1398" 
d="M649 1227h-82q-4 -170 -4 -494h78q141 0 203.5 70t62.5 180q0 244 -258 244zM225 635v76q0 340 -4 508l-153 16v111h665q240 0 371 -89.5t131 -250.5q0 -54 -19.5 -103t-60.5 -94t-114.5 -78t-172.5 -49q85 -11 144 -36.5t95.5 -68.5t56.5 -95t32 -128l39 -227l156 -16
v-111q-77 -18 -117.5 -23.5t-108.5 -5.5q-137 0 -210 47t-87 162l-37 238q-15 105 -59.5 152.5t-134.5 47.5h-74q0 -333 4 -491l160 -16v-111h-659v111l153 16q4 166 4 508z" />
    <glyph glyph-name="S" unicode="S" horiz-adv-x="1107" 
d="M512 84q107 0 166 54.5t59 140.5q0 79 -40 124.5t-136 88.5l-88 38q-193 89 -286 193t-93 266q0 183 137.5 289t370.5 106q110 0 212 -27.5t175 -76.5l-16 -287h-189l-39 242q-73 27 -137 27q-90 0 -150.5 -52t-60.5 -135q0 -78 45 -126.5t142 -92.5l96 -43
q200 -91 284.5 -188.5t84.5 -249.5q0 -187 -139.5 -300.5t-395.5 -113.5q-121 0 -240.5 28t-203.5 81l12 303h190l41 -252q90 -37 199 -37z" />
    <glyph glyph-name="T" unicode="T" horiz-adv-x="1298" 
d="M477 635v76q0 346 -4 520h-223l-39 -266h-170l8 381h1202l6 -381h-170l-36 266h-226q-4 -170 -4 -520v-74q0 -340 4 -508l176 -18v-111h-702v111l174 18q4 166 4 506z" />
    <glyph glyph-name="U" unicode="U" horiz-adv-x="1497" 
d="M555 573q0 -229 71.5 -327.5t221.5 -98.5q293 0 293 433v639l-187 16v111h490v-111l-170 -14v-641q0 -619 -539 -619q-117 0 -210 30.5t-165 93.5t-110.5 170.5t-38.5 252.5v223q0 326 -4 490l-148 14v111h668v-111l-170 -16q-2 -162 -2 -488v-158z" />
    <glyph glyph-name="V" unicode="V" horiz-adv-x="1353" 
d="M575 -4l-440 1227l-119 12v111h660v-105l-174 -22l280 -844l283 839l-160 27v105h445v-111l-154 -25l-422 -1214h-199z" />
    <glyph glyph-name="W" unicode="W" horiz-adv-x="2009" 
d="M1282 -4l-289 934l-284 -934h-201l-367 1227l-125 12v111h635v-111l-149 -16l209 -824l245 822l-149 18v111h614v-111l-178 -23l238 -831l235 831l-145 23v111h432v-111l-160 -27l-360 -1212h-201z" />
    <glyph glyph-name="X" unicode="X" horiz-adv-x="1339" 
d="M23 1235v111h641v-111l-123 -14l202 -349l213 353l-127 10v111h428v-111l-153 -12l-297 -459l373 -639l145 -14v-111h-674v111l150 16l-228 391l-251 -397l129 -10v-111h-437v111l160 14l336 502l-346 592z" />
    <glyph glyph-name="Y" unicode="Y" horiz-adv-x="1277" 
d="M850 1235v111h424v-111l-150 -25l-309 -628q0 -330 2 -453l178 -18v-111h-702v111l176 18q2 111 2 399l-340 695l-115 12v111h660v-111l-154 -18l234 -519l235 514z" />
    <glyph glyph-name="Z" unicode="Z" horiz-adv-x="1153" 
d="M223 965h-162l17 381h1014v-95l-660 -1134h463l53 264h164l-16 -381h-1055v94l657 1135h-422z" />
    <glyph glyph-name="bracketleft" unicode="[" horiz-adv-x="712" 
d="M211 324v491q0 434 -6 649h477v-110l-221 -23q-2 -170 -2 -516v-491q0 -345 4 -517l219 -22v-111h-477q6 211 6 650z" />
    <glyph glyph-name="backslash" unicode="\" horiz-adv-x="792" 
d="M774 -328h-211l-547 1782h211z" />
    <glyph glyph-name="bracketright" unicode="]" horiz-adv-x="712" 
d="M502 815v-491q0 -435 6 -650h-477v111l221 22q2 170 2 517v491q0 344 -4 516l-219 23v110h477q-6 -211 -6 -649z" />
    <glyph glyph-name="asciicircum" unicode="^" horiz-adv-x="1114" 
d="M111 475l362 559h170l363 -559l-148 -102l-301 458l-301 -458z" />
    <glyph glyph-name="underscore" unicode="_" horiz-adv-x="1103" 
d="M82 -184v184h940v-184h-940z" />
    <glyph glyph-name="grave" unicode="&#x2cb;" horiz-adv-x="819" 
d="M592 1196l-78 -63q-106 82 -227 172q-66 50 -97.5 89.5t-31.5 82.5q0 51 34 81.5t78 30.5q49 0 83 -28t77 -99q156 -255 162 -266z" />
    <glyph glyph-name="grave" unicode="`" horiz-adv-x="819" 
d="M592 1196l-78 -63q-106 82 -227 172q-66 50 -97.5 89.5t-31.5 82.5q0 51 34 81.5t78 30.5q49 0 83 -28t77 -99q156 -255 162 -266z" />
    <glyph glyph-name="a" unicode="a" horiz-adv-x="1087" 
d="M850 -29q-176 0 -225 148q-51 -54 -85.5 -82.5t-87 -48t-120.5 -19.5q-122 0 -195.5 68.5t-73.5 193.5q0 57 18 102t61.5 87.5t122 79.5t194.5 71q62 18 155 41v68q0 137 -33.5 186t-131.5 49q-36 0 -56 -2l-10 -90q-3 -96 -44.5 -143t-105.5 -47q-113 0 -137 102
q8 131 131 209t340 78q196 0 281.5 -90.5t85.5 -296.5v-459q0 -59 45 -59q18 0 31 9.5t30 35.5l56 -37q-36 -82 -94.5 -118t-151.5 -36zM367 285q0 -74 33.5 -112t88.5 -38q28 0 55 12t70 43v334q-45 -15 -96 -35q-151 -64 -151 -204z" />
    <glyph glyph-name="b" unicode="b" horiz-adv-x="1249" 
d="M637 141q93 0 150 91t57 266t-54.5 260.5t-150.5 85.5q-67 0 -141 -60v-585q64 -58 139 -58zM59 -2v96l109 23q2 98 2 311v864l-127 17v86l424 92l33 -21l-8 -286v-289q128 131 296 131q175 0 288.5 -136t113.5 -382q0 -121 -36 -223t-96.5 -169.5t-139.5 -105
t-166 -37.5q-166 0 -271 123l-35 -121z" />
    <glyph glyph-name="c" unicode="c" horiz-adv-x="1050" 
d="M645 915q-46 0 -88 -22t-78.5 -66t-58 -121t-21.5 -176q0 -174 78 -270t209 -96q129 0 229 115l72 -64q-119 -246 -420 -246q-106 0 -197.5 34t-161.5 98t-110.5 164.5t-40.5 226.5q0 163 75 285t199.5 183.5t278.5 61.5q159 0 265.5 -86.5t117.5 -212.5
q-17 -56 -50.5 -81.5t-88.5 -25.5q-66 0 -108 46.5t-48 148.5l-14 102q-12 2 -39 2z" />
    <glyph glyph-name="d" unicode="d" horiz-adv-x="1216" 
d="M406 489q0 -165 58 -253.5t154 -88.5q70 0 127 48v610q-55 43 -120 43q-98 0 -158.5 -91.5t-60.5 -267.5zM1171 0l-399 -23l-16 119q-118 -127 -289 -127q-179 0 -293.5 136.5t-114.5 379.5q0 121 38 224t101 170.5t144 105t168 37.5q151 0 248 -111v377l-144 21v86
l433 92l32 -21l-8 -286v-1063l100 -21v-96z" />
    <glyph glyph-name="e" unicode="e" horiz-adv-x="1067" 
d="M565 915q-66 0 -109.5 -77.5t-49.5 -251.5h174q72 0 98.5 29t26.5 100q0 97 -40 148.5t-100 51.5zM586 1022q198 0 311 -121.5t113 -312.5q0 -55 -13 -109h-591q10 -156 85.5 -235.5t188.5 -79.5q141 0 248 110l71 -65q-124 -240 -430 -240q-228 0 -369 140.5t-141 384.5
q0 124 45 226t120 167t168.5 100t193.5 35z" />
    <glyph glyph-name="f" unicode="f" horiz-adv-x="741" 
d="M178 430v420h-133v121l137 16q17 144 60.5 233t109.5 152q143 135 342 135q210 0 246 -145q-2 -60 -41 -98.5t-106 -38.5q-104 0 -185 145l-16 25q-24 -24 -35 -43q-66 -115 -57 -363h219v-139h-215v-420q0 -201 2 -301l158 -33v-96h-603v96l113 23q4 208 4 311z" />
    <glyph glyph-name="g" unicode="g" horiz-adv-x="1112" 
d="M506 924q-68 0 -103.5 -61t-35.5 -171q0 -233 135 -233q71 0 107 62t36 173q0 108 -36 169t-103 61zM504 -344q149 0 229 44t80 114q0 50 -36 83t-113 33h-215q-109 0 -187 19q-33 -56 -33 -119q0 -90 67 -132t208 -42zM76 690q0 149 109 240.5t319 91.5q213 0 325 -94
l230 98l33 -20v-158h-195q37 -67 37 -158q0 -145 -110 -236.5t-320 -91.5q-104 0 -187 25q-24 -43 -24 -94q0 -78 119 -78h239q420 0 420 -299q0 -163 -158.5 -272t-441.5 -109q-123 0 -211.5 19.5t-137 54t-70 75.5t-21.5 91q0 133 170 211q-119 50 -119 164q0 130 158 266
q-81 42 -122.5 113t-41.5 161z" />
    <glyph glyph-name="h" unicode="h" horiz-adv-x="1263" 
d="M170 430v858l-127 21v86l424 92l33 -21l-8 -286v-330q82 93 158 132.5t167 39.5q139 0 219 -89.5t80 -262.5v-240q0 -213 2 -313l103 -21v-96h-539v96l106 23q3 150 3 311v215q0 100 -24 139t-87 39q-82 0 -182 -94v-299q0 -213 2 -313l96 -21v-96h-539v96l111 25
q2 98 2 309z" />
    <glyph glyph-name="i" unicode="i" horiz-adv-x="647" 
d="M334 1174q-73 0 -123.5 45.5t-50.5 115.5q0 71 50.5 117.5t123.5 46.5t123.5 -46.5t50.5 -117.5q0 -70 -50.5 -115.5t-123.5 -45.5zM604 96v-96h-543v96l111 25q2 98 2 309v98q0 135 -6 258l-127 19v80l430 137l35 -23l-6 -297v-272q0 -213 2 -313z" />
    <glyph glyph-name="j" unicode="j" horiz-adv-x="628" 
d="M328 1174q-73 0 -123.5 45.5t-50.5 115.5q0 71 50.5 117.5t123.5 46.5t123.5 -46.5t50.5 -117.5q0 -70 -50.5 -115.5t-123.5 -45.5zM168 172v356q0 135 -6 258l-125 19v80l426 137l35 -23l-6 -297v-591q0 -184 -29.5 -283t-104.5 -174q-71 -74 -160.5 -106.5
t-177.5 -32.5q-102 0 -169.5 40t-92.5 101q7 69 57 109t115 40q115 0 187 -118l24 -41q14 25 19 49q10 44 12 114t-1 190.5t-3 172.5z" />
    <glyph glyph-name="k" unicode="k" horiz-adv-x="1224" 
d="M43 1395l430 92l33 -21l-8 -286v-629l331 323l-139 25v90h477v-90l-184 -27l-180 -170l289 -575l131 -31v-96h-418l-232 489l-75 -71q0 -45 1 -149t1 -150l110 -23v-96h-557v96l115 25q2 100 2 309v858l-127 21v86z" />
    <glyph glyph-name="l" unicode="l" horiz-adv-x="661" 
d="M43 1395l430 92l33 -21l-8 -286v-750q0 -103 4 -311l112 -23v-96h-561v96l113 25q4 204 4 309v858l-127 21v86z" />
    <glyph glyph-name="m" unicode="m" horiz-adv-x="1857" 
d="M1413 1022q154 0 226.5 -89.5t72.5 -273.5v-229q0 -213 2 -311l103 -23v-96h-529v96l101 25q2 98 2 309v199q0 113 -26 153.5t-91 40.5q-87 0 -172 -73q4 -50 4 -80v-240q0 -213 2 -313l96 -21v-96h-528v96l106 25q2 98 2 309v197q0 109 -25.5 152.5t-92.5 43.5
q-81 0 -168 -73v-320q0 -213 2 -313l96 -21v-96h-539v96l111 25q2 98 2 309v119q0 155 -6 237l-125 19v80l403 137l37 -23l13 -149q75 88 151.5 130t167.5 42q210 0 272 -182q84 100 161.5 141t168.5 41z" />
    <glyph glyph-name="n" unicode="n" horiz-adv-x="1261" 
d="M819 1022q136 0 215.5 -90t79.5 -262v-240q0 -213 2 -313l103 -21v-96h-541v96l106 23q2 100 2 311v215q0 97 -26 137.5t-86 40.5q-83 0 -176 -75v-318q0 -213 2 -313l96 -21v-96h-539v96l111 25q2 98 2 309v119q0 114 -6 237l-125 19v80l403 137l37 -23l13 -147
q80 92 157.5 131t169.5 39z" />
    <glyph glyph-name="o" unicode="o" horiz-adv-x="1157" 
d="M580 -31q-237 0 -379 146.5t-142 384.5q0 231 149 376.5t372 145.5q146 0 263.5 -63t187 -183t69.5 -276q0 -240 -141.5 -385.5t-378.5 -145.5zM580 76q87 0 129.5 101t42.5 317t-42.5 317.5t-129.5 101.5q-88 0 -131 -101t-43 -318q0 -216 42.5 -317t131.5 -101z" />
    <glyph glyph-name="p" unicode="p" horiz-adv-x="1251" 
d="M846 496q0 175 -54 261.5t-149 86.5q-63 0 -139 -58v-593q61 -52 133 -52q96 0 152.5 89t56.5 266zM178 -6v555q0 114 -6 237l-127 19v80l401 137l35 -21l8 -116q131 137 304 137q174 0 287.5 -138t113.5 -384q0 -120 -36 -221.5t-96.5 -168.5t-139.5 -104t-166 -37
q-155 0 -258 109v-82q0 -84 4 -334l131 -31v-96h-574v96l115 25q4 258 4 338z" />
    <glyph glyph-name="q" unicode="q" horiz-adv-x="1193" 
d="M406 487q0 -164 57.5 -252t154.5 -88q70 0 130 50v616q-60 35 -121 35q-101 0 -161 -92t-60 -269zM1073 -33q0 -105 4 -313l103 -23v-96h-562v96l134 31q2 102 2 305v129q-115 -127 -287 -127q-180 0 -294 135.5t-114 378.5q0 123 37.5 226t101 170.5t147.5 105t177 37.5
q149 0 258 -123l240 123l59 -21l-6 -276v-758z" />
    <glyph glyph-name="r" unicode="r" horiz-adv-x="952" 
d="M55 0v96l113 23q2 100 2 311v121q0 112 -6 235l-125 19v80l403 137l37 -23l19 -241q39 126 116.5 195t157.5 69q70 0 118 -39.5t60 -112.5q-3 -78 -42.5 -123t-102.5 -45q-86 0 -158 97l-12 16q-47 -44 -84.5 -110.5t-52.5 -135.5v-139q0 -203 2 -299l162 -35v-96h-607z
" />
    <glyph glyph-name="s" unicode="s" horiz-adv-x="931" 
d="M418 -31q-194 0 -357 94l7 250h163l35 -202q79 -29 154 -29q182 0 182 121q0 50 -37.5 83.5t-134.5 61.5l-111 33q-247 73 -247 305q0 146 113.5 241t314.5 95q155 0 323 -84l-14 -223h-164l-41 176q-44 16 -112 16q-71 0 -112.5 -29t-41.5 -85q0 -44 36 -75.5t136 -62.5
l100 -28q143 -42 208 -120.5t65 -197.5q0 -161 -123.5 -250.5t-341.5 -89.5z" />
    <glyph glyph-name="t" unicode="t" horiz-adv-x="733" 
d="M481 276q0 -69 28.5 -104t76.5 -35q53 0 110 45l52 -49q-87 -164 -302 -164q-292 0 -292 285q0 35 1 99.5t1 105.5v391h-133v121l151 20l102 287h209l-4 -289h215v-139h-215v-574z" />
    <glyph glyph-name="u" unicode="u" horiz-adv-x="1243" 
d="M1202 -2l-420 -21l-12 170q-136 -178 -332 -178q-293 0 -288 369l8 500l-119 26v86l418 60l32 -23l-10 -289v-362q0 -91 28 -129.5t83 -38.5q81 0 176 92l8 580l-112 24v80l407 66l33 -23l-6 -289v-581l106 -23v-96z" />
    <glyph glyph-name="v" unicode="v" horiz-adv-x="1079" 
d="M680 899v90h387v-90l-119 -22l-338 -881h-155l-369 883l-100 20v90h581v-90l-129 -25l193 -524l178 524z" />
    <glyph glyph-name="w" unicode="w" horiz-adv-x="1615" 
d="M1231 899v90h373v-90l-115 -18l-313 -885h-154l-236 659l-233 -659h-154l-323 889l-90 14v90h538v-90l-118 -16l161 -525l178 523l-120 18v90h501v-90l-112 -18l168 -510l166 510z" />
    <glyph glyph-name="x" unicode="x" horiz-adv-x="1130" 
d="M715 899v90h358v-90l-117 -22l-237 -322l274 -438l117 -21v-96h-586v96l94 15l-151 245l-160 -241l101 -19v-96h-388v96l142 23l246 334l-267 430l-114 16v90h575v-90l-90 -14l150 -238l151 230z" />
    <glyph glyph-name="y" unicode="y" horiz-adv-x="1093" 
d="M213 -485q-82 0 -144.5 44.5t-66.5 108.5q11 65 58 99t110 34q112 0 176 -96l14 -20q90 97 140 235v2l-408 963l-96 16v88h582v-88l-138 -24l201 -555l195 555l-136 24v88h385v-88l-116 -20l-373 -965q-32 -83 -60.5 -143t-63 -111t-72 -82t-84.5 -48t-103 -17z" />
    <glyph glyph-name="z" unicode="z" horiz-adv-x="950" 
d="M66 989h835v-78l-495 -817h290l60 248h166l-21 -342h-864v80l512 817h-279l-55 -227l-166 8z" />
    <glyph glyph-name="braceleft" unicode="{" horiz-adv-x="690" 
d="M82 514v111q123 25 169 64.5t46 103.5q0 45 -17.5 99t-39 96t-39 100t-17.5 112q0 130 102.5 197t272.5 67h70v-108l-56 -6q-141 -18 -141 -158q0 -58 28.5 -176t28.5 -172q0 -99 -50 -170.5t-148 -104.5q98 -33 148 -104t50 -170q0 -54 -28.5 -172t-28.5 -176
q0 -140 141 -158l56 -6v-109h-70q-170 0 -272.5 67.5t-102.5 197.5q0 54 17.5 112t39 100t39 96t17.5 99q0 64 -46 103.5t-169 64.5z" />
    <glyph glyph-name="bar" unicode="|" horiz-adv-x="557" 
d="M178 -512v2048h201v-2048h-201z" />
    <glyph glyph-name="braceright" unicode="}" horiz-adv-x="690" 
d="M608 625v-111q-123 -25 -169 -64.5t-46 -103.5q0 -45 17.5 -99t39 -96t39 -100t17.5 -112q0 -130 -102.5 -197.5t-272.5 -67.5h-70v109l56 6q141 18 141 158q0 58 -28.5 176t-28.5 172q0 99 50 170t148 104q-98 33 -148 104.5t-50 170.5q0 54 28.5 172t28.5 176
q0 140 -141 158l-56 6v108h70q170 0 272.5 -67t102.5 -197q0 -54 -17.5 -112t-39 -100t-39 -96t-17.5 -99q0 -64 46 -103.5t169 -64.5z" />
    <glyph glyph-name="asciitilde" unicode="~" horiz-adv-x="1114" 
d="M606 788q72 -58 103 -76t61 -18q94 0 107 195l157 -17q-3 -190 -77.5 -277t-196.5 -87q-58 0 -117 28.5t-135 88.5q-70 58 -101 76t-61 18q-45 0 -72 -44.5t-36 -150.5l-156 17q3 191 75.5 277.5t196.5 86.5q59 0 118.5 -28.5t133.5 -88.5z" />
    <glyph glyph-name="exclamdown" unicode="&#xa1;" horiz-adv-x="710" 
d="M356 1004q80 0 135.5 -55t55.5 -134q0 -78 -56 -134t-135 -56q-81 0 -136.5 55.5t-55.5 134.5q0 80 55 134.5t137 54.5zM356 -395q-91 0 -143.5 50t-52.5 144q0 140 90 467l51 197h109l51 -197q90 -320 90 -467q0 -94 -52 -144t-143 -50z" />
    <glyph glyph-name="cent" unicode="&#xa2;" horiz-adv-x="1110" 
d="M700 -92h-127v198q-227 15 -365 156t-138 369q0 223 135.5 363.5t367.5 162.5v180h127v-178q150 -12 247 -94t108 -203q-24 -100 -115 -100q-66 0 -104 39t-56 137l-20 109q-27 6 -60 6v-781q160 14 275 142l72 -64q-48 -101 -137.5 -163.5t-209.5 -77.5v-201zM383 657
q0 -141 52.5 -238t137.5 -132v755q-89 -32 -139.5 -130.5t-50.5 -254.5z" />
    <glyph glyph-name="sterling" unicode="&#xa3;" horiz-adv-x="1110" 
d="M94 0v190q94 56 147.5 139.5t53.5 170.5q0 23 -4 55h-170v117h133q-5 12 -22 46t-25 52.5t-19 51t-15.5 66.5t-4.5 73q0 115 63 198.5t163.5 123.5t223.5 40q173 0 279 -82.5t117 -222.5q-25 -100 -125 -100q-62 0 -101 37t-57 132l-22 125q-10 2 -29 2q-105 0 -164 -62
t-59 -175q0 -52 7.5 -103.5t21 -112t18.5 -89.5h346v-117h-338q-1 -6 -2 -17.5t-2 -17.5q-15 -181 -166 -268h674v-252h-922z" />
    <glyph glyph-name="currency" unicode="&#xa4;" horiz-adv-x="1112" 
d="M352 664q0 -96 60.5 -157t144.5 -61q85 0 144 61t59 157q0 94 -59 154.5t-144 60.5q-84 0 -144.5 -61t-60.5 -154zM193 664q0 129 73 225l-65 35q-71 37 -110.5 73.5t-39.5 79.5q0 37 26.5 64.5t63.5 27.5q45 0 80.5 -38t75.5 -111l35 -68q96 74 225 74q127 0 223 -74
l37 68q37 70 73.5 109.5t80.5 39.5q37 0 64.5 -27t27.5 -65q0 -43 -38.5 -78t-111.5 -75l-67 -35q74 -97 74 -225q0 -126 -74 -226l67 -35q71 -37 110.5 -73.5t39.5 -79.5q0 -37 -27.5 -64.5t-64.5 -27.5q-43 0 -78.5 38.5t-75.5 110.5l-35 68q-99 -74 -225 -74t-225 74
l-35 -68q-40 -73 -75.5 -111t-80.5 -38q-36 0 -63 27t-27 65q0 43 38.5 78t111.5 75l65 35q-73 96 -73 226z" />
    <glyph glyph-name="yen" unicode="&#xa5;" horiz-adv-x="1110" 
d="M121 285v118h276v144h-276v117h235l-258 510l-110 12v106h596v-106l-154 -17l211 -471l217 465l-137 23v106h401v-106l-121 -25l-245 -497h239v-117h-282v-144h282v-118h-282q1 -25 2 -77.5t2 -80.5l184 -18v-109h-692v109l186 18q0 32 1 84t1 74h-276z" />
    <glyph glyph-name="brokenbar" unicode="&#xa6;" horiz-adv-x="557" 
d="M178 -512v922h201v-922h-201zM379 655h-201v881h201v-881z" />
    <glyph glyph-name="section" unicode="&#xa7;" horiz-adv-x="1089" 
d="M580 1382q180 0 286.5 -72.5t106.5 -191.5q-8 -52 -40.5 -77t-74.5 -25q-60 0 -101.5 36t-70.5 126l-35 96q-14 2 -49 2q-98 0 -152.5 -38.5t-54.5 -111.5q0 -68 51 -108.5t172 -83.5q213 -72 299.5 -159t86.5 -228q0 -142 -142 -246q70 -79 70 -197q0 -137 -112.5 -232
t-307.5 -95q-181 0 -287 72t-108 190q10 53 41.5 77.5t74.5 24.5q60 0 101.5 -35t71.5 -126l32 -95q16 -2 51 -2q97 0 152 39.5t55 114.5q0 35 -13 60.5t-48.5 49t-77 41.5t-119.5 48q-187 71 -268.5 151t-81.5 213q0 71 38.5 138.5t106.5 119.5q-73 82 -73 201
q0 135 111 229t309 94zM547 477q169 -59 244 -112q22 46 22 88q0 86 -59.5 132t-218.5 101q-153 55 -234 113q-22 -46 -22 -88q0 -88 60.5 -136.5t207.5 -97.5z" />
    <glyph glyph-name="dieresis" unicode="&#xa8;" horiz-adv-x="819" 
d="M655 1178q-65 0 -111 40.5t-46 108.5q0 67 46.5 108.5t110.5 41.5q65 0 111.5 -41.5t46.5 -108.5q0 -68 -46 -108.5t-112 -40.5zM164 1178q-65 0 -111.5 40.5t-46.5 108.5q0 67 47 108.5t111 41.5q66 0 112 -41.5t46 -108.5q0 -68 -45.5 -108.5t-112.5 -40.5z" />
    <glyph glyph-name="copyright" unicode="&#xa9;" horiz-adv-x="1523" 
d="M188 674q0 -135 46 -249.5t124.5 -191.5t183.5 -120t222 -43t222 43t183 120t124 191.5t46 249.5t-46 249t-124 191t-183 119.5t-222 42.5t-222 -42.5t-183.5 -119.5t-124.5 -191t-46 -249zM61 674q0 159 57 293.5t153 225t224 141t269 50.5t268.5 -50.5t223 -141
t152 -225t56.5 -293.5q0 -158 -56.5 -293t-152 -226t-223 -142.5t-268.5 -51.5t-269 51.5t-224 142.5t-153 226t-57 293zM846 346q40 0 86 19l31 145h96l-4 -193q-107 -63 -252 -63q-183 0 -302.5 111t-119.5 309q0 102 35 184.5t95 134.5t137 79.5t163 27.5q128 0 236 -60
l4 -196h-97l-32 149q-43 17 -74 17q-101 0 -168.5 -87.5t-67.5 -246.5q0 -158 66 -244t168 -86z" />
    <glyph glyph-name="ordfeminine" unicode="&#xaa;" horiz-adv-x="727" 
d="M616 963q0 -48 33 -48q19 0 45 29l35 -24q-24 -52 -61 -73.5t-95 -21.5q-122 0 -147 103q-58 -58 -97.5 -81.5t-101.5 -23.5q-82 0 -132 45.5t-50 126.5q0 71 56.5 122t203.5 93q47 15 115 31v45q0 91 -24.5 123.5t-92.5 32.5q-27 0 -41 -2l-8 -68q-4 -57 -31 -84.5
t-67 -27.5q-76 0 -88 65q6 83 87.5 132.5t221.5 49.5q128 0 183.5 -57t55.5 -190v-297zM236 1026q0 -50 24.5 -75t61.5 -25q15 0 31 7t25 13t42 29v211q-36 -9 -76 -27q-108 -43 -108 -133z" />
    <glyph glyph-name="guillemotleft" unicode="&#xab;" horiz-adv-x="1130" 
d="M532 61l-479 390v133l479 389l72 -74l-315 -381l315 -383zM979 61l-479 390v133l479 389l72 -74l-316 -381l316 -383z" />
    <glyph glyph-name="logicalnot" unicode="&#xac;" horiz-adv-x="1114" 
d="M57 653v181h994v-539h-187v358h-807z" />
    <glyph glyph-name="registered" unicode="&#xae;" horiz-adv-x="962" 
d="M158 1049q0 -148 93 -238t230 -90q136 0 229 90t93 238q0 149 -92.5 237t-229.5 88q-138 0 -230.5 -88t-92.5 -237zM61 1049q0 125 58.5 220.5t153 144t208.5 48.5t208.5 -48.5t153 -144t58.5 -220.5q0 -124 -58 -220.5t-153 -146t-209 -49.5t-209 49.5t-153 146
t-58 220.5zM705 897v-41q-47 -8 -74 -8q-45 0 -68.5 14.5t-27.5 52.5l-11 68q-6 55 -55 55h-18v-137l47 -4v-41h-209v41l45 4v313l-45 5v43h209q72 0 113.5 -28t41.5 -75q0 -34 -26 -61t-84 -37q52 -7 75 -30.5t29 -67.5l8 -62zM467 1217h-16v-138h16q40 0 58 20t18 50
q0 68 -76 68z" />
    <glyph glyph-name="macron" unicode="&#x2c9;" horiz-adv-x="819" 
d="M84 1202v182h651v-182h-651z" />
    <glyph glyph-name="macron" unicode="&#xaf;" horiz-adv-x="819" 
d="M84 1202v182h651v-182h-651z" />
    <glyph glyph-name="degree" unicode="&#xb0;" horiz-adv-x="671" 
d="M336 932q71 0 116.5 48t45.5 128t-46 129t-116 49t-116 -49t-46 -129t45.5 -128t116.5 -48zM336 834q-112 0 -192.5 75.5t-80.5 198.5t80.5 199.5t192.5 76.5t192 -76.5t80 -199.5t-80 -198.5t-192 -75.5z" />
    <glyph glyph-name="plusminus" unicode="&#xb1;" horiz-adv-x="1114" 
d="M1055 0h-994v180h994v-180zM463 248v368h-402v179h402v358h188v-358h404v-179h-404v-368h-188z" />
    <glyph glyph-name="two.sups" unicode="&#xb2;" horiz-adv-x="763" 
d="M88 844v117l174 167q98 93 140 161t42 151q0 73 -35.5 112t-97.5 39q-18 0 -28 -2l-17 -86q-15 -112 -98 -112q-59 0 -86 55q1 105 89.5 160t231.5 55q128 0 194.5 -62t66.5 -157q0 -89 -74 -172t-240 -193l-82 -57h412v-176h-592z" />
    <glyph glyph-name="three.sups" unicode="&#xb3;" horiz-adv-x="763" 
d="M256 1294h37q156 0 156 154q0 71 -34.5 107t-97.5 36q-14 0 -22 -2l-12 -84q-7 -46 -34 -67t-65 -21q-49 0 -75 37q0 103 75.5 155t188.5 52q141 0 215 -56.5t74 -146.5q0 -67 -46 -119.5t-137 -74.5q111 -18 161 -70t50 -141q0 -108 -89 -171t-239 -63q-140 0 -213.5 56
t-78.5 159q22 58 84 58q41 0 65 -24.5t33 -88.5l10 -88q8 -2 29 -2q174 0 174 174q0 156 -164 156h-45v75z" />
    <glyph glyph-name="acute" unicode="&#x2ca;" horiz-adv-x="819" 
d="M225 1196q54 95 160 264q43 71 77.5 100t84.5 29q44 0 77 -30.5t33 -81.5q0 -44 -32 -84.5t-97 -87.5q-119 -90 -225 -172z" />
    <glyph glyph-name="acute" unicode="&#xb4;" horiz-adv-x="819" 
d="M225 1196q54 95 160 264q43 71 77.5 100t84.5 29q44 0 77 -30.5t33 -81.5q0 -44 -32 -84.5t-97 -87.5q-119 -90 -225 -172z" />
    <glyph glyph-name="mu" unicode="&#x3bc;" horiz-adv-x="1204" 
d="M967 -31q-79 0 -130.5 49.5t-70.5 141.5q-78 -191 -225 -191q-92 0 -152 105l53 -408l-286 -63l-37 37l59 585l-49 738l293 59l33 -23q-26 -583 -29 -704q49 -96 152 -96q115 0 176 96l-23 668l293 59l33 -23q-6 -95 -15 -222t-12.5 -180.5t-8 -121.5t-5.5 -106.5
t0 -73.5q0 -78 18.5 -104.5t65.5 -26.5q37 0 67 12l29 -72q-76 -135 -229 -135z" />
    <glyph glyph-name="mu" unicode="&#xb5;" horiz-adv-x="1204" 
d="M967 -31q-79 0 -130.5 49.5t-70.5 141.5q-78 -191 -225 -191q-92 0 -152 105l53 -408l-286 -63l-37 37l59 585l-49 738l293 59l33 -23q-26 -583 -29 -704q49 -96 152 -96q115 0 176 96l-23 668l293 59l33 -23q-6 -95 -15 -222t-12.5 -180.5t-8 -121.5t-5.5 -106.5
t0 -73.5q0 -78 18.5 -104.5t65.5 -26.5q37 0 67 12l29 -72q-76 -135 -229 -135z" />
    <glyph glyph-name="paragraph" unicode="&#xb6;" horiz-adv-x="1302" 
d="M643 1233v-995q-125 2 -232 37t-189.5 102.5t-129.5 175t-47 244.5q0 142 53.5 248.5t151 171.5t225.5 97t285 32h473v-111l-154 -18q-4 -166 -4 -506v-312q0 -426 6 -637h-288q6 207 6 635v836h-156z" />
    <glyph glyph-name="periodcentered" unicode="&#xb7;" horiz-adv-x="614" 
d="M307 504q-77 0 -130.5 53t-53.5 129t53.5 131t130.5 55t131 -55t54 -131q0 -75 -53.5 -128.5t-131.5 -53.5z" />
    <glyph glyph-name="cedilla" unicode="&#xb8;" horiz-adv-x="819" 
d="M276 -182l29 190h107l-13 -112q104 -20 154.5 -65.5t50.5 -109.5q0 -81 -71.5 -131.5t-204.5 -50.5q-81 0 -160 27l22 94q62 -16 109 -16q107 0 107 77q0 88 -130 97z" />
    <glyph glyph-name="one.sups" unicode="&#xb9;" horiz-adv-x="763" 
d="M150 1581l346 80l18 -14v-705l150 -35v-63h-531v63l160 35v574l-143 -19v84z" />
    <glyph glyph-name="ordmasculine" unicode="&#xba;" horiz-adv-x="778" 
d="M389 1438q-135 0 -135 -273q0 -272 135 -272q133 0 133 272q0 273 -133 273zM389 1507q147 0 247.5 -93t100.5 -247q0 -157 -96.5 -250.5t-251.5 -93.5q-156 0 -252 94t-96 250q0 153 99.5 246.5t248.5 93.5z" />
    <glyph glyph-name="guillemotright" unicode="&#xbb;" horiz-adv-x="1130" 
d="M152 973l479 -389v-133l-479 -390l-72 74l315 383l-315 381zM598 973l479 -389v-133l-479 -390l-72 74l316 383l-316 381z" />
    <glyph glyph-name="onequarter" unicode="&#xbc;" horiz-adv-x="1789" 
d="M537 -66l-97 66l916 1350l96 -66zM143 1241l346 80l19 -14v-705l149 -35v-63h-530v63l160 35v574l-144 -19v84zM971 182v121l379 498h151v-471h119v-148h-119v-182h-192v182h-338zM1085 330h224v299z" />
    <glyph glyph-name="onehalf" unicode="&#xbd;" horiz-adv-x="1789" 
d="M485 -66l-96 66l916 1350l96 -66zM117 1241l346 80l18 -14v-705l150 -35v-63h-531v63l160 35v574l-143 -19v84zM1083 0v117l174 168q98 94 140.5 161t42.5 150q0 73 -35.5 112.5t-97.5 39.5q-14 0 -29 -3l-16 -86q-15 -112 -99 -112q-59 0 -86 55q1 105 90 160t232 55
q128 0 194 -62t66 -157q0 -89 -73.5 -172t-239.5 -193l-82 -57h411v-176h-592z" />
    <glyph glyph-name="threequarters" unicode="&#xbe;" horiz-adv-x="1789" 
d="M543 -80l-97 66l916 1349l96 -65zM326 954h36q156 0 156 154q0 71 -34 107t-97 36q-14 0 -22 -2l-13 -84q-13 -88 -98 -88q-50 0 -76 37q0 103 75.5 155t188.5 52q141 0 215 -56.5t74 -146.5q0 -67 -45.5 -119.5t-136.5 -74.5q111 -18 161 -70t50 -141q0 -108 -89 -171
t-239 -63q-140 0 -214 56t-79 159q22 58 84 58q42 0 66.5 -24.5t32.5 -88.5l10 -88q8 -2 28 -2q175 0 175 174q0 156 -164 156h-45v75zM993 182v121l379 498h152v-471h118v-148h-118v-182h-193v182h-338zM1108 330h223v299z" />
    <glyph glyph-name="questiondown" unicode="&#xbf;" horiz-adv-x="919" 
d="M567 1051q80 0 136.5 -55t56.5 -134q0 -78 -57 -134t-136 -56q-81 0 -135.5 55.5t-54.5 134.5q0 80 54.5 134.5t135.5 54.5zM119 106q0 109 53 174.5t172 102.5l88 27q50 14 65.5 28.5t18.5 55.5l4 57h117l25 -74q34 -103 34 -172q0 -55 -37.5 -85.5t-123.5 -51.5
l-156 -35q-54 -14 -76 -34t-22 -58q0 -25 10 -55l297 -45q105 -16 145.5 -52.5t40.5 -97.5q0 -59 -37 -96.5t-116 -59.5q-122 25 -236.5 95t-190 172t-75.5 204z" />
    <glyph glyph-name="Agrave" unicode="&#xc0;" horiz-adv-x="1382" 
d="M594 1032l-170 -522h336zM18 0v111l166 24l416 1213h211l420 -1227l125 -15v-106h-633v106l158 21l-84 264h-412l-82 -256l156 -24v-111h-441zM827 1503l-57 -80q-45 20 -151.5 66.5t-163.5 71.5q-119 55 -119 137q0 41 32.5 72.5t80.5 31.5q36 0 69 -17.5t82 -64.5
q180 -170 227 -217z" />
    <glyph glyph-name="Aacute" unicode="&#xc1;" horiz-adv-x="1382" 
d="M594 1032l-170 -522h336zM18 0v111l166 24l416 1213h211l420 -1227l125 -15v-106h-633v106l158 21l-84 264h-412l-82 -256l156 -24v-111h-441zM549 1503q82 80 227 217q49 46 82.5 64t69.5 18q48 0 80 -31.5t32 -72.5q0 -81 -116 -133q-60 -28 -169.5 -76t-148.5 -66z
" />
    <glyph glyph-name="Acircumflex" unicode="&#xc2;" horiz-adv-x="1382" 
d="M594 1032l-170 -522h336zM18 0v111l166 24l416 1213h211l420 -1227l125 -15v-106h-633v106l158 21l-84 264h-412l-82 -256l156 -24v-111h-441zM766 1778l307 -310l-61 -73l-316 174l-315 -174l-62 73l308 310h139z" />
    <glyph glyph-name="Atilde" unicode="&#xc3;" horiz-adv-x="1382" 
d="M594 1032l-170 -522h336zM18 0v111l166 24l416 1213h211l420 -1227l125 -15v-106h-633v106l158 21l-84 264h-412l-82 -256l156 -24v-111h-441zM322 1475q17 134 79.5 209t153.5 75q71 0 156 -55q3 -2 17 -12.5t19.5 -14t18 -11.5t20.5 -11.5t19.5 -8t21.5 -6.5t21 -2
q87 0 131 123l86 -35q-17 -134 -78.5 -210t-150.5 -76q-80 0 -162 55q-4 3 -20 14.5t-22.5 16t-21 13t-24 12t-23 7t-26.5 3.5q-85 0 -129 -121z" />
    <glyph glyph-name="Adieresis" unicode="&#xc4;" horiz-adv-x="1382" 
d="M594 1032l-170 -522h336zM18 0v111l166 24l416 1213h211l420 -1227l125 -15v-106h-633v106l158 21l-84 264h-412l-82 -256l156 -24v-111h-441zM446 1460q-61 0 -105 39t-44 103t44 102.5t105 38.5q64 0 108 -38.5t44 -102.5t-44 -103t-108 -39zM956 1460q-61 0 -105 39
t-44 103t44 102.5t105 38.5q64 0 108 -38.5t44 -102.5t-44 -103t-108 -39z" />
    <glyph glyph-name="Aring" unicode="&#xc5;" horiz-adv-x="1382" 
d="M594 1032l-170 -522h336zM18 0v111l166 24l416 1213h211l420 -1227l125 -15v-106h-633v106l158 21l-84 264h-412l-82 -256l156 -24v-111h-441zM702 1530q47 0 76 30t29 78q0 46 -29 76.5t-76 30.5t-75.5 -30.5t-28.5 -76.5q0 -48 28.5 -78t75.5 -30zM702 1436
q-90 0 -150 55t-60 147q0 91 60 147t150 56t150.5 -55t60.5 -148t-60 -147.5t-151 -54.5z" />
    <glyph glyph-name="AE" unicode="&#xc6;" horiz-adv-x="1826" 
d="M530 618h306v586h-25zM18 0v111l136 18l528 1083l-193 23v111h1233l15 -353h-172l-41 238h-344q-4 -156 -4 -475h225l24 159h119v-440h-119l-24 160h-225q0 -354 4 -520h385l41 237h172l-15 -352h-1083v111l151 16q5 308 5 373h-363l-174 -363l160 -26v-111h-441z" />
    <glyph glyph-name="Ccedilla" unicode="&#xc7;" horiz-adv-x="1273" 
d="M834 80q83 0 172 39l57 262h156l-9 -315q-185 -100 -409 -105l-6 -65q104 -20 154 -65.5t50 -109.5q0 -81 -71.5 -131.5t-204.5 -50.5q-81 0 -160 27l23 94q62 -16 108 -16q107 0 107 77q0 88 -129 97l22 147q-135 13 -247.5 63t-197 136.5t-132 217t-47.5 292.5
q0 141 38.5 259t106 200t159.5 139.5t198 84.5t223 27q217 0 401 -102l8 -317h-155l-60 268q-69 35 -147 35q-84 0 -156 -35t-130 -105t-91 -187t-33 -269t32 -268t88 -185.5t127 -104t155 -34.5z" />
    <glyph glyph-name="Egrave" unicode="&#xc8;" horiz-adv-x="1218" 
d="M225 635v76q0 340 -4 508l-153 16v111h1044l14 -353h-170l-41 238h-342q-4 -156 -4 -475h222l24 159h119v-440h-119l-24 160h-222q0 -354 4 -520h383l41 237h170l-14 -352h-1085v111l153 16q4 166 4 508zM764 1503l-57 -80q-46 20 -152.5 66.5t-163.5 71.5
q-119 55 -119 137q0 41 32.5 72.5t80.5 31.5q36 0 69.5 -18t82.5 -64q180 -170 227 -217z" />
    <glyph glyph-name="Eacute" unicode="&#xc9;" horiz-adv-x="1218" 
d="M225 635v76q0 340 -4 508l-153 16v111h1044l14 -353h-170l-41 238h-342q-4 -156 -4 -475h222l24 159h119v-440h-119l-24 160h-222q0 -354 4 -520h383l41 237h170l-14 -352h-1085v111l153 16q4 166 4 508zM492 1503q82 80 227 217q49 47 82 64.5t69 17.5q48 0 80.5 -31.5
t32.5 -72.5q0 -81 -117 -133q-60 -28 -170.5 -77t-146.5 -65z" />
    <glyph glyph-name="Ecircumflex" unicode="&#xca;" horiz-adv-x="1218" 
d="M225 635v76q0 340 -4 508l-153 16v111h1044l14 -353h-170l-41 238h-342q-4 -156 -4 -475h222l24 159h119v-440h-119l-24 160h-222q0 -354 4 -520h383l41 237h170l-14 -352h-1085v111l153 16q4 166 4 508zM731 1790l307 -309l-61 -74l-315 174l-316 -174l-61 74l307 309
h139z" />
    <glyph glyph-name="Edieresis" unicode="&#xcb;" horiz-adv-x="1218" 
d="M225 635v76q0 340 -4 508l-153 16v111h1044l14 -353h-170l-41 238h-342q-4 -156 -4 -475h222l24 159h119v-440h-119l-24 160h-222q0 -354 4 -520h383l41 237h170l-14 -352h-1085v111l153 16q4 166 4 508zM381 1460q-61 0 -105.5 39t-44.5 103t44.5 102.5t105.5 38.5
q64 0 107.5 -38.5t43.5 -102.5t-43.5 -103t-107.5 -39zM891 1460q-61 0 -105.5 39t-44.5 103t44.5 102.5t105.5 38.5q64 0 107.5 -38.5t43.5 -102.5t-43.5 -103t-107.5 -39z" />
    <glyph glyph-name="Igrave" unicode="&#xcc;" horiz-adv-x="794" 
d="M225 635v76q0 340 -4 508l-153 16v111h659v-111l-154 -16q-4 -166 -4 -508v-74q0 -342 4 -510l154 -16v-111h-659v111l153 16q4 166 4 508zM551 1503l-57 -80q-46 20 -153 66.5t-163 71.5q-119 55 -119 137q0 41 32.5 72.5t80.5 31.5q36 0 69.5 -18t82.5 -64
q180 -170 227 -217z" />
    <glyph glyph-name="Iacute" unicode="&#xcd;" horiz-adv-x="794" 
d="M225 635v76q0 340 -4 508l-153 16v111h659v-111l-154 -16q-4 -166 -4 -508v-74q0 -342 4 -510l154 -16v-111h-659v111l153 16q4 166 4 508zM254 1503q82 80 227 217q49 46 82.5 64t69.5 18q48 0 80 -31.5t32 -72.5q0 -81 -116 -133q-60 -28 -169.5 -76t-148.5 -66z" />
    <glyph glyph-name="Icircumflex" unicode="&#xce;" horiz-adv-x="794" 
d="M225 635v76q0 340 -4 508l-153 16v111h659v-111l-154 -16q-4 -166 -4 -508v-74q0 -342 4 -510l154 -16v-111h-659v111l153 16q4 166 4 508zM467 1790l307 -309l-61 -74l-316 174l-315 -174l-62 74l308 309h139z" />
    <glyph glyph-name="Idieresis" unicode="&#xcf;" horiz-adv-x="794" 
d="M225 635v76q0 340 -4 508l-153 16v111h659v-111l-154 -16q-4 -166 -4 -508v-74q0 -342 4 -510l154 -16v-111h-659v111l153 16q4 166 4 508zM141 1460q-61 0 -105 39t-44 103t44 102.5t105 38.5q64 0 108 -38.5t44 -102.5t-44 -103t-108 -39zM651 1460q-61 0 -105 39
t-44 103t44 102.5t105 38.5q64 0 108 -38.5t44 -102.5t-44 -103t-108 -39z" />
    <glyph glyph-name="Eth" unicode="&#xd0;" horiz-adv-x="1443" 
d="M68 1235v111h608q327 0 512.5 -179t185.5 -491q0 -317 -198 -496.5t-537 -179.5h-571v111l153 16q4 166 4 504h-157v119h157q0 313 -4 469zM807 631h-238q0 -350 4 -512h68q176 0 277.5 146t101.5 409q0 266 -100.5 409.5t-276.5 143.5h-70q-4 -170 -4 -477h238v-119z
" />
    <glyph glyph-name="Ntilde" unicode="&#xd1;" horiz-adv-x="1490" 
d="M893 1235v111h539v-111l-175 -27v-1212h-172l-720 999v-858l233 -26v-111h-541v111l174 24v1047l-28 39l-142 14v111h463l602 -828v690zM379 1468q17 134 79.5 209.5t153.5 75.5q71 0 156 -55q3 -2 17 -12.5t19.5 -14t18 -11.5t20.5 -11.5t19.5 -8t21.5 -6.5t21 -2
q87 0 131 123l86 -35q-17 -134 -78.5 -210t-150.5 -76q-80 0 -162 55q-4 3 -17.5 12.5t-19 13.5t-17.5 11.5t-20 11t-19.5 8t-22 6.5t-21.5 2q-85 0 -129 -120z" />
    <glyph glyph-name="Ograve" unicode="&#xd2;" horiz-adv-x="1437" 
d="M432 674q0 -131 16.5 -237t50 -187t89.5 -125.5t131 -44.5q76 0 132 44.5t89.5 126t49.5 187t16 236.5t-16 236t-49.5 186t-89.5 125.5t-132 44.5q-99 0 -165 -79t-94 -208t-28 -305zM719 1384q102 0 196.5 -27.5t177 -85.5t143.5 -140.5t96.5 -200t35.5 -256.5
q0 -172 -53.5 -310t-144.5 -224.5t-206.5 -132.5t-244.5 -46t-244.5 45t-206.5 131t-144.5 224.5t-53.5 312.5q0 171 54 308.5t145 224t206.5 132t243.5 45.5zM872 1509l-57 -79q-48 21 -153.5 66.5t-161.5 70.5q-119 55 -119 137q0 41 32.5 72.5t80.5 31.5q36 0 69 -17.5
t82 -64.5q180 -170 227 -217z" />
    <glyph glyph-name="Oacute" unicode="&#xd3;" horiz-adv-x="1437" 
d="M432 674q0 -131 16.5 -237t50 -187t89.5 -125.5t131 -44.5q76 0 132 44.5t89.5 126t49.5 187t16 236.5t-16 236t-49.5 186t-89.5 125.5t-132 44.5q-99 0 -165 -79t-94 -208t-28 -305zM719 1384q102 0 196.5 -27.5t177 -85.5t143.5 -140.5t96.5 -200t35.5 -256.5
q0 -172 -53.5 -310t-144.5 -224.5t-206.5 -132.5t-244.5 -46t-244.5 45t-206.5 131t-144.5 224.5t-53.5 312.5q0 171 54 308.5t145 224t206.5 132t243.5 45.5zM575 1509q48 46 228 217q49 47 82 64.5t69 17.5q48 0 80.5 -31.5t32.5 -72.5q0 -81 -117 -133
q-59 -27 -167.5 -74.5t-149.5 -66.5z" />
    <glyph glyph-name="Ocircumflex" unicode="&#xd4;" horiz-adv-x="1437" 
d="M432 674q0 -131 16.5 -237t50 -187t89.5 -125.5t131 -44.5q76 0 132 44.5t89.5 126t49.5 187t16 236.5t-16 236t-49.5 186t-89.5 125.5t-132 44.5q-99 0 -165 -79t-94 -208t-28 -305zM719 1384q102 0 196.5 -27.5t177 -85.5t143.5 -140.5t96.5 -200t35.5 -256.5
q0 -172 -53.5 -310t-144.5 -224.5t-206.5 -132.5t-244.5 -46t-244.5 45t-206.5 131t-144.5 224.5t-53.5 312.5q0 171 54 308.5t145 224t206.5 132t243.5 45.5zM788 1790l308 -309l-62 -74l-315 174l-316 -174l-61 74l307 309h139z" />
    <glyph glyph-name="Otilde" unicode="&#xd5;" horiz-adv-x="1437" 
d="M432 674q0 -131 16.5 -237t50 -187t89.5 -125.5t131 -44.5q76 0 132 44.5t89.5 126t49.5 187t16 236.5t-16 236t-49.5 186t-89.5 125.5t-132 44.5q-99 0 -165 -79t-94 -208t-28 -305zM719 1384q102 0 196.5 -27.5t177 -85.5t143.5 -140.5t96.5 -200t35.5 -256.5
q0 -172 -53.5 -310t-144.5 -224.5t-206.5 -132.5t-244.5 -46t-244.5 45t-206.5 131t-144.5 224.5t-53.5 312.5q0 171 54 308.5t145 224t206.5 132t243.5 45.5zM348 1489q17 134 80 209.5t154 75.5q31 0 60.5 -9t47.5 -19t47 -28q2 -2 15 -11t17 -11.5t15.5 -10.5t17.5 -11
t16.5 -8t18.5 -7t18 -4t19 -2q88 0 132 123l86 -35q-17 -134 -79 -210.5t-151 -76.5q-80 0 -162 55q-4 3 -20 14.5t-22.5 16t-21 13t-24 12t-23 7t-26.5 3.5q-85 0 -129 -121z" />
    <glyph glyph-name="Odieresis" unicode="&#xd6;" horiz-adv-x="1437" 
d="M432 674q0 -131 16.5 -237t50 -187t89.5 -125.5t131 -44.5q76 0 132 44.5t89.5 126t49.5 187t16 236.5t-16 236t-49.5 186t-89.5 125.5t-132 44.5q-99 0 -165 -79t-94 -208t-28 -305zM719 1384q102 0 196.5 -27.5t177 -85.5t143.5 -140.5t96.5 -200t35.5 -256.5
q0 -172 -53.5 -310t-144.5 -224.5t-206.5 -132.5t-244.5 -46t-244.5 45t-206.5 131t-144.5 224.5t-53.5 312.5q0 171 54 308.5t145 224t206.5 132t243.5 45.5zM463 1460q-61 0 -105.5 39t-44.5 103t44.5 102.5t105.5 38.5q64 0 107.5 -38.5t43.5 -102.5t-43.5 -103
t-107.5 -39zM973 1460q-61 0 -105.5 39t-44.5 103t44.5 102.5t105.5 38.5q64 0 107.5 -38.5t43.5 -102.5t-43.5 -103t-107.5 -39z" />
    <glyph glyph-name="multiply" unicode="&#xd7;" horiz-adv-x="1114" 
d="M905 182l-348 348l-348 -348l-129 131l348 349l-348 348l129 129l348 -348l348 348l131 -129l-348 -348l348 -349z" />
    <glyph glyph-name="Oslash" unicode="&#xd8;" horiz-adv-x="1437" 
d="M1335 1321l-127 -156q160 -191 160 -491q0 -172 -53.5 -310t-144.5 -224.5t-206.5 -132.5t-244.5 -46q-221 0 -385 121l-123 -152l-113 95l127 157q-155 189 -155 492q0 171 54 308.5t145 224t206.5 132t243.5 45.5q220 0 381 -118l121 149zM412 674q0 -132 18 -240
l528 656q-78 176 -239 176q-81 0 -141 -44.5t-95.5 -125.5t-53 -186.5t-17.5 -235.5zM1026 674q0 133 -18 241l-531 -655q78 -180 242 -180q81 0 141 44.5t96 125.5t53 187t17 237z" />
    <glyph glyph-name="Ugrave" unicode="&#xd9;" horiz-adv-x="1497" 
d="M555 573q0 -229 71.5 -327.5t221.5 -98.5q293 0 293 433v639l-187 16v111h490v-111l-170 -14v-641q0 -619 -539 -619q-117 0 -210 30.5t-165 93.5t-110.5 170.5t-38.5 252.5v223q0 326 -4 490l-148 14v111h668v-111l-170 -16q-2 -162 -2 -488v-158zM963 1497l-58 -80
q-48 21 -153.5 66.5t-161.5 70.5q-119 55 -119 138q0 41 32.5 72.5t80.5 31.5q36 0 69 -17.5t82 -64.5q198 -187 228 -217z" />
    <glyph glyph-name="Uacute" unicode="&#xda;" horiz-adv-x="1497" 
d="M555 573q0 -229 71.5 -327.5t221.5 -98.5q293 0 293 433v639l-187 16v111h490v-111l-170 -14v-641q0 -619 -539 -619q-117 0 -210 30.5t-165 93.5t-110.5 170.5t-38.5 252.5v223q0 326 -4 490l-148 14v111h668v-111l-170 -16q-2 -162 -2 -488v-158zM655 1497
q48 46 228 217q49 47 82 64.5t69 17.5q48 0 80.5 -31.5t32.5 -72.5q0 -81 -117 -133q-60 -28 -170.5 -77t-146.5 -65z" />
    <glyph glyph-name="Ucircumflex" unicode="&#xdb;" horiz-adv-x="1497" 
d="M555 573q0 -229 71.5 -327.5t221.5 -98.5q293 0 293 433v639l-187 16v111h490v-111l-170 -14v-641q0 -619 -539 -619q-117 0 -210 30.5t-165 93.5t-110.5 170.5t-38.5 252.5v223q0 326 -4 490l-148 14v111h668v-111l-170 -16q-2 -162 -2 -488v-158zM903 1784l307 -309
l-61 -74l-315 174l-316 -174l-61 74l307 309h139z" />
    <glyph glyph-name="Udieresis" unicode="&#xdc;" horiz-adv-x="1497" 
d="M555 573q0 -229 71.5 -327.5t221.5 -98.5q293 0 293 433v639l-187 16v111h490v-111l-170 -14v-641q0 -619 -539 -619q-117 0 -210 30.5t-165 93.5t-110.5 170.5t-38.5 252.5v223q0 326 -4 490l-148 14v111h668v-111l-170 -16q-2 -162 -2 -488v-158zM578 1460
q-61 0 -105.5 39t-44.5 103t44.5 102.5t105.5 38.5q64 0 107.5 -38.5t43.5 -102.5t-43.5 -103t-107.5 -39zM1087 1460q-61 0 -105 39t-44 103t44 102.5t105 38.5q64 0 108 -38.5t44 -102.5t-44 -103t-108 -39z" />
    <glyph glyph-name="Yacute" unicode="&#xdd;" horiz-adv-x="1277" 
d="M850 1235v111h424v-111l-150 -25l-309 -628q0 -330 2 -453l178 -18v-111h-702v111l176 18q2 111 2 399l-340 695l-115 12v111h660v-111l-154 -18l234 -519l235 514zM608 1497q48 46 228 217q49 47 82 64.5t69 17.5q48 0 80.5 -31.5t32.5 -72.5q0 -81 -117 -133
q-60 -28 -170.5 -77t-146.5 -65z" />
    <glyph glyph-name="Thorn" unicode="&#xde;" horiz-adv-x="1273" 
d="M225 635v76q0 338 -4 508l-153 16v111h669v-111l-172 -18q-2 -39 -2 -121h76q312 0 455 -101t143 -293q0 -94 -30.5 -166t-99.5 -130t-193.5 -88.5t-299.5 -30.5h-53q1 -26 2 -79t2 -79l172 -18v-111h-669v111l153 16q4 166 4 508zM561 637v-231h64q134 0 212 79t78 209
q0 138 -71.5 210.5t-216.5 72.5h-66v-264v-76z" />
    <glyph glyph-name="germandbls" unicode="&#xdf;" horiz-adv-x="1349" 
d="M170 430v485q0 274 154 420q166 172 444 172q207 0 324.5 -85.5t117.5 -217.5q0 -83 -40.5 -138.5t-139.5 -111.5q-90 -51 -118.5 -81t-28.5 -62q0 -38 35 -68.5t159 -91.5q133 -69 189.5 -147t56.5 -199q0 -149 -115.5 -242.5t-314.5 -93.5q-172 0 -289 64l6 256h160
l37 -203q23 -4 72 -4q82 0 126 33.5t44 97.5q0 61 -35.5 98.5t-136.5 85.5q-61 28 -101 51.5t-75 57.5t-51.5 77.5t-16.5 100.5q0 79 40 133t140 135q67 55 93 107.5t26 120.5q0 97 -52 159t-141 62q-138 0 -190 -113q-32 -59 -41.5 -157.5t-9.5 -286.5v-414q0 -216 6 -430
h-451v96l113 23q4 208 4 311z" />
    <glyph glyph-name="agrave" unicode="&#xe0;" horiz-adv-x="1087" 
d="M850 -29q-176 0 -225 148q-51 -54 -85.5 -82.5t-87 -48t-120.5 -19.5q-122 0 -195.5 68.5t-73.5 193.5q0 57 18 102t61.5 87.5t122 79.5t194.5 71q62 18 155 41v68q0 137 -33.5 186t-131.5 49q-36 0 -56 -2l-10 -90q-3 -96 -44.5 -143t-105.5 -47q-113 0 -137 102
q8 131 131 209t340 78q196 0 281.5 -90.5t85.5 -296.5v-459q0 -59 45 -59q18 0 31 9.5t30 35.5l56 -37q-36 -82 -94.5 -118t-151.5 -36zM664 1196l-78 -63q-81 63 -228 172q-66 50 -97.5 89.5t-31.5 82.5q0 51 34.5 81.5t78.5 30.5q49 0 83 -28t77 -99q156 -255 162 -266z
M367 285q0 -74 33.5 -112t88.5 -38q28 0 55 12t70 43v334q-45 -15 -96 -35q-151 -64 -151 -204z" />
    <glyph glyph-name="aacute" unicode="&#xe1;" horiz-adv-x="1087" 
d="M850 -29q-176 0 -225 148q-51 -54 -85.5 -82.5t-87 -48t-120.5 -19.5q-122 0 -195.5 68.5t-73.5 193.5q0 57 18 102t61.5 87.5t122 79.5t194.5 71q62 18 155 41v68q0 137 -33.5 186t-131.5 49q-36 0 -56 -2l-10 -90q-3 -96 -44.5 -143t-105.5 -47q-113 0 -137 102
q8 131 131 209t340 78q196 0 281.5 -90.5t85.5 -296.5v-459q0 -59 45 -59q18 0 31 9.5t30 35.5l56 -37q-36 -82 -94.5 -118t-151.5 -36zM422 1196q54 95 160 264q43 72 77.5 100.5t83.5 28.5q44 0 77.5 -30.5t33.5 -81.5q0 -44 -32 -84.5t-97 -87.5q-119 -90 -225 -172z
M367 285q0 -74 33.5 -112t88.5 -38q28 0 55 12t70 43v334q-45 -15 -96 -35q-151 -64 -151 -204z" />
    <glyph glyph-name="acircumflex" unicode="&#xe2;" horiz-adv-x="1087" 
d="M850 -29q-176 0 -225 148q-51 -54 -85.5 -82.5t-87 -48t-120.5 -19.5q-122 0 -195.5 68.5t-73.5 193.5q0 57 18 102t61.5 87.5t122 79.5t194.5 71q62 18 155 41v68q0 137 -33.5 186t-131.5 49q-36 0 -56 -2l-10 -90q-3 -96 -44.5 -143t-105.5 -47q-113 0 -137 102
q8 131 131 209t340 78q196 0 281.5 -90.5t85.5 -296.5v-459q0 -59 45 -59q18 0 31 9.5t30 35.5l56 -37q-36 -82 -94.5 -118t-151.5 -36zM831 1116l-274 211l-274 -211l-74 68l283 358h131l282 -358zM367 285q0 -74 33.5 -112t88.5 -38q28 0 55 12t70 43v334q-45 -15 -96 -35
q-151 -64 -151 -204z" />
    <glyph glyph-name="atilde" unicode="&#xe3;" horiz-adv-x="1087" 
d="M850 -29q-176 0 -225 148q-51 -54 -85.5 -82.5t-87 -48t-120.5 -19.5q-122 0 -195.5 68.5t-73.5 193.5q0 57 18 102t61.5 87.5t122 79.5t194.5 71q62 18 155 41v68q0 137 -33.5 186t-131.5 49q-36 0 -56 -2l-10 -90q-3 -96 -44.5 -143t-105.5 -47q-113 0 -137 102
q8 131 131 209t340 78q196 0 281.5 -90.5t85.5 -296.5v-459q0 -59 45 -59q18 0 31 9.5t30 35.5l56 -37q-36 -82 -94.5 -118t-151.5 -36zM174 1204q17 135 78 210t151 75q67 0 152 -55q63 -47 93 -57q21 -7 40 -7q84 0 127 121l84 -35q-17 -134 -77.5 -210.5t-147.5 -76.5
q-67 0 -156 56q-5 3 -20 14.5t-22 16t-20.5 12.5t-23.5 12t-23 7t-26 3q-82 0 -125 -121zM367 285q0 -74 33.5 -112t88.5 -38q28 0 55 12t70 43v334q-45 -15 -96 -35q-151 -64 -151 -204z" />
    <glyph glyph-name="adieresis" unicode="&#xe4;" horiz-adv-x="1087" 
d="M850 -29q-176 0 -225 148q-51 -54 -85.5 -82.5t-87 -48t-120.5 -19.5q-122 0 -195.5 68.5t-73.5 193.5q0 57 18 102t61.5 87.5t122 79.5t194.5 71q62 18 155 41v68q0 137 -33.5 186t-131.5 49q-36 0 -56 -2l-10 -90q-3 -96 -44.5 -143t-105.5 -47q-113 0 -137 102
q8 131 131 209t340 78q196 0 281.5 -90.5t85.5 -296.5v-459q0 -59 45 -59q18 0 31 9.5t30 35.5l56 -37q-36 -82 -94.5 -118t-151.5 -36zM295 1178q-65 0 -111.5 40.5t-46.5 108.5q0 67 47 108.5t111 41.5q66 0 112 -41.5t46 -108.5q0 -68 -45.5 -108.5t-112.5 -40.5z
M786 1178q-65 0 -111 40.5t-46 108.5q0 67 46.5 108.5t110.5 41.5q65 0 111.5 -41.5t46.5 -108.5q0 -68 -46 -108.5t-112 -40.5zM367 285q0 -74 33.5 -112t88.5 -38q28 0 55 12t70 43v334q-45 -15 -96 -35q-151 -64 -151 -204z" />
    <glyph glyph-name="aring" unicode="&#xe5;" horiz-adv-x="1087" 
d="M850 -29q-176 0 -225 148q-51 -54 -85.5 -82.5t-87 -48t-120.5 -19.5q-122 0 -195.5 68.5t-73.5 193.5q0 57 18 102t61.5 87.5t122 79.5t194.5 71q62 18 155 41v68q0 137 -33.5 186t-131.5 49q-36 0 -56 -2l-10 -90q-3 -96 -44.5 -143t-105.5 -47q-113 0 -137 102
q8 131 131 209t340 78q196 0 281.5 -90.5t85.5 -296.5v-459q0 -59 45 -59q18 0 31 9.5t30 35.5l56 -37q-36 -82 -94.5 -118t-151.5 -36zM545 1237q55 0 88 40t33 91q0 53 -32.5 91t-88.5 38t-88.5 -38t-32.5 -91q0 -51 33 -91t88 -40zM545 1133q-106 0 -177 64.5t-71 170.5
q0 105 71.5 169.5t176.5 64.5q107 0 177.5 -62.5t70.5 -171.5t-70.5 -172t-177.5 -63zM367 285q0 -74 33.5 -112t88.5 -38q28 0 55 12t70 43v334q-45 -15 -96 -35q-151 -64 -151 -204z" />
    <glyph glyph-name="ae" unicode="&#xe6;" horiz-adv-x="1615" 
d="M1114 915q-65 0 -109 -77t-51 -252h176q72 0 97.5 29t25.5 100q0 97 -39.5 148.5t-99.5 51.5zM1118 -31q-127 0 -231 48t-172 137q-86 -103 -172 -144t-195 -41q-132 0 -208.5 68.5t-76.5 193.5q0 57 18 101.5t62 87t121.5 79t194.5 70.5q16 4 69.5 19t85.5 24v68
q0 136 -33.5 185.5t-129.5 49.5q-38 0 -58 -2l-8 -92q-3 -96 -45.5 -144t-106.5 -48q-113 0 -137 104q8 131 131.5 210t339.5 79q192 0 277 -107q121 107 291 107q199 0 311.5 -121t112.5 -313q0 -64 -11 -109h-594q10 -155 86.5 -235t188.5 -80q140 0 250 110l69 -65
q-124 -240 -430 -240zM367 287q0 -78 36.5 -115t92.5 -37q45 0 79 17.5t95 72.5q-62 121 -62 271v24q-52 -15 -90 -33q-151 -64 -151 -200z" />
    <glyph glyph-name="ccedilla" unicode="&#xe7;" horiz-adv-x="1050" 
d="M645 915q-46 0 -88 -22t-78.5 -66t-58 -121t-21.5 -176q0 -174 78 -270t209 -96q129 0 229 115l72 -64q-110 -232 -381 -244l-8 -75q104 -20 154.5 -65.5t50.5 -109.5q0 -81 -71.5 -131.5t-205.5 -50.5q-80 0 -159 27l22 94q62 -16 109 -16q106 0 106 77q0 88 -129 97
l23 155q-194 21 -317.5 156.5t-123.5 362.5q0 163 75 285t199.5 183.5t278.5 61.5q159 0 265.5 -86.5t117.5 -212.5q-17 -56 -50.5 -81.5t-88.5 -25.5q-66 0 -108 46.5t-48 148.5l-14 102q-12 2 -39 2z" />
    <glyph glyph-name="egrave" unicode="&#xe8;" horiz-adv-x="1067" 
d="M565 915q-66 0 -109.5 -77.5t-49.5 -251.5h174q72 0 98.5 29t26.5 100q0 97 -40 148.5t-100 51.5zM586 1022q198 0 311 -121.5t113 -312.5q0 -55 -13 -109h-591q10 -156 85.5 -235.5t188.5 -79.5q141 0 248 110l71 -65q-124 -240 -430 -240q-228 0 -369 140.5t-141 384.5
q0 124 45 226t120 167t168.5 100t193.5 35zM696 1196l-78 -63q-106 82 -227 172q-66 50 -97.5 89.5t-31.5 82.5q0 51 34 81.5t79 30.5q49 0 83 -28t77 -99q129 -211 161 -266z" />
    <glyph glyph-name="eacute" unicode="&#xe9;" horiz-adv-x="1067" 
d="M565 915q-66 0 -109.5 -77.5t-49.5 -251.5h174q72 0 98.5 29t26.5 100q0 97 -40 148.5t-100 51.5zM586 1022q198 0 311 -121.5t113 -312.5q0 -55 -13 -109h-591q10 -156 85.5 -235.5t188.5 -79.5q141 0 248 110l71 -65q-124 -240 -430 -240q-228 0 -369 140.5t-141 384.5
q0 124 45 226t120 167t168.5 100t193.5 35zM444 1196q54 95 160 264q43 71 77.5 100t84.5 29q44 0 77.5 -30.5t33.5 -81.5q0 -44 -32 -84.5t-97 -87.5q-164 -124 -226 -172z" />
    <glyph glyph-name="ecircumflex" unicode="&#xea;" horiz-adv-x="1067" 
d="M565 915q-66 0 -109.5 -77.5t-49.5 -251.5h174q72 0 98.5 29t26.5 100q0 97 -40 148.5t-100 51.5zM586 1022q198 0 311 -121.5t113 -312.5q0 -55 -13 -109h-591q10 -156 85.5 -235.5t188.5 -79.5q141 0 248 110l71 -65q-124 -240 -430 -240q-228 0 -369 140.5t-141 384.5
q0 124 45 226t120 167t168.5 100t193.5 35zM846 1116l-275 211l-274 -211l-74 68l283 358h131l283 -358z" />
    <glyph glyph-name="edieresis" unicode="&#xeb;" horiz-adv-x="1067" 
d="M565 915q-66 0 -109.5 -77.5t-49.5 -251.5h174q72 0 98.5 29t26.5 100q0 97 -40 148.5t-100 51.5zM586 1022q198 0 311 -121.5t113 -312.5q0 -55 -13 -109h-591q10 -156 85.5 -235.5t188.5 -79.5q141 0 248 110l71 -65q-124 -240 -430 -240q-228 0 -369 140.5t-141 384.5
q0 124 45 226t120 167t168.5 100t193.5 35zM334 1178q-65 0 -111.5 40.5t-46.5 108.5q0 67 47 108.5t111 41.5q66 0 112 -41.5t46 -108.5q0 -68 -45.5 -108.5t-112.5 -40.5zM825 1178q-65 0 -111 40.5t-46 108.5q0 67 46.5 108.5t110.5 41.5q65 0 111.5 -41.5t46.5 -108.5
q0 -68 -46 -108.5t-112 -40.5z" />
    <glyph glyph-name="igrave" unicode="&#xec;" horiz-adv-x="647" 
d="M61 0v96l111 25q2 98 2 309v98q0 135 -6 258l-125 19v80l428 137l35 -23l-6 -297v-272q0 -213 2 -313l102 -21v-96h-543zM453 1196l-78 -63q-81 63 -228 172q-66 50 -97.5 89.5t-31.5 82.5q0 51 34 81.5t79 30.5q49 0 83 -28t77 -99q156 -255 162 -266z" />
    <glyph glyph-name="iacute" unicode="&#xed;" horiz-adv-x="647" 
d="M61 0v96l111 25q2 98 2 309v98q0 135 -6 258l-125 19v80l428 137l35 -23l-6 -297v-272q0 -213 2 -313l102 -21v-96h-543zM229 1196q54 95 160 264q43 71 77.5 100t84.5 29q44 0 77.5 -30.5t33.5 -81.5q0 -44 -32.5 -84.5t-97.5 -87.5q-119 -90 -225 -172z" />
    <glyph glyph-name="icircumflex" unicode="&#xee;" horiz-adv-x="647" 
d="M61 0v96l111 25q2 98 2 309v98q0 135 -6 258l-125 19v80l428 137l35 -23l-6 -297v-272q0 -213 2 -313l102 -21v-96h-543zM614 1116l-274 211l-274 -211l-74 68l282 358h132l282 -358z" />
    <glyph glyph-name="idieresis" unicode="&#xef;" horiz-adv-x="647" 
d="M61 0v96l111 25q2 98 2 309v98q0 135 -6 258l-125 19v80l428 137l35 -23l-6 -297v-272q0 -213 2 -313l102 -21v-96h-543zM90 1178q-65 0 -111.5 40.5t-46.5 108.5q0 67 47 108.5t111 41.5q66 0 112 -41.5t46 -108.5q0 -68 -45.5 -108.5t-112.5 -40.5zM582 1178
q-65 0 -111.5 40.5t-46.5 108.5q0 67 47 108.5t111 41.5q65 0 111 -41.5t46 -108.5q0 -68 -45.5 -108.5t-111.5 -40.5z" />
    <glyph glyph-name="eth" unicode="&#xf0;" horiz-adv-x="1134" 
d="M549 -31q-92 0 -178 33t-156.5 95.5t-113 164t-42.5 227.5q0 116 41.5 212t111 158t158 96t185.5 34q70 0 121 -26q-50 128 -119 208l-287 -135l-55 113l248 117q-81 67 -223 135l53 106q198 -62 344 -159l321 151l54 -113l-264 -124q155 -133 240 -309.5t85 -381.5
q0 -152 -42 -269.5t-115.5 -189t-166.5 -107.5t-200 -36zM571 76q77 0 122.5 107t45.5 309q0 191 -43 292t-125 101q-77 0 -121 -104t-44 -304q0 -196 42.5 -298.5t122.5 -102.5z" />
    <glyph glyph-name="ntilde" unicode="&#xf1;" horiz-adv-x="1261" 
d="M819 1022q136 0 215.5 -90t79.5 -262v-240q0 -213 2 -313l103 -21v-96h-541v96l106 23q2 100 2 311v215q0 97 -26 137.5t-86 40.5q-83 0 -176 -75v-318q0 -213 2 -313l96 -21v-96h-539v96l111 25q2 98 2 309v119q0 114 -6 237l-125 19v80l403 137l37 -23l13 -147
q80 92 157.5 131t169.5 39zM268 1204q17 135 78.5 210t151.5 75q66 0 151 -55q63 -47 93 -57q21 -7 40 -7q84 0 127 121l84 -35q-17 -134 -77.5 -210.5t-147.5 -76.5q-67 0 -156 56q-5 3 -20 14.5t-22 16t-20.5 12.5t-23.5 12t-23 7t-26 3q-82 0 -125 -121z" />
    <glyph glyph-name="ograve" unicode="&#xf2;" horiz-adv-x="1157" 
d="M580 -31q-237 0 -379 146.5t-142 384.5q0 231 149 376.5t372 145.5q146 0 263.5 -63t187 -183t69.5 -276q0 -240 -141.5 -385.5t-378.5 -145.5zM580 76q87 0 129.5 101t42.5 317t-42.5 317.5t-129.5 101.5q-88 0 -131 -101t-43 -318q0 -216 42.5 -317t131.5 -101z
M692 1196l-78 -63q-106 82 -227 172q-66 50 -97.5 89.5t-31.5 82.5q0 51 34 81.5t79 30.5q49 0 82.5 -28t76.5 -99q156 -255 162 -266z" />
    <glyph glyph-name="oacute" unicode="&#xf3;" horiz-adv-x="1157" 
d="M580 -31q-237 0 -379 146.5t-142 384.5q0 231 149 376.5t372 145.5q146 0 263.5 -63t187 -183t69.5 -276q0 -240 -141.5 -385.5t-378.5 -145.5zM580 76q87 0 129.5 101t42.5 317t-42.5 317.5t-129.5 101.5q-88 0 -131 -101t-43 -318q0 -216 42.5 -317t131.5 -101z
M485 1196q54 95 160 264q43 71 77.5 100t84.5 29q44 0 77.5 -30.5t33.5 -81.5q0 -44 -32.5 -84.5t-97.5 -87.5q-119 -90 -225 -172z" />
    <glyph glyph-name="ocircumflex" unicode="&#xf4;" horiz-adv-x="1157" 
d="M580 76q87 0 129.5 101t42.5 317t-42.5 317.5t-129.5 101.5q-88 0 -131 -101t-43 -318q0 -216 42.5 -317t131.5 -101zM580 -31q-237 0 -379 146.5t-142 384.5q0 231 149 376.5t372 145.5q146 0 263.5 -63t187 -183t69.5 -276q0 -240 -141.5 -385.5t-378.5 -145.5z
M854 1116l-274 211l-275 -211l-74 68l283 358h131l283 -358z" />
    <glyph glyph-name="otilde" unicode="&#xf5;" horiz-adv-x="1157" 
d="M580 -31q-237 0 -379 146.5t-142 384.5q0 231 149 376.5t372 145.5q146 0 263.5 -63t187 -183t69.5 -276q0 -240 -141.5 -385.5t-378.5 -145.5zM580 76q87 0 129.5 101t42.5 317t-42.5 317.5t-129.5 101.5q-88 0 -131 -101t-43 -318q0 -216 42.5 -317t131.5 -101z
M217 1204q17 135 78 210t151 75q67 0 152 -55q63 -47 93 -57q21 -7 40 -7q84 0 127 121l84 -35q-17 -134 -77.5 -210.5t-147.5 -76.5q-67 0 -156 56q-5 3 -20 14.5t-22 16t-20.5 12.5t-23.5 12t-23 7t-26 3q-82 0 -125 -121z" />
    <glyph glyph-name="odieresis" unicode="&#xf6;" horiz-adv-x="1157" 
d="M580 -31q-237 0 -379 146.5t-142 384.5q0 231 149 376.5t372 145.5q146 0 263.5 -63t187 -183t69.5 -276q0 -240 -141.5 -385.5t-378.5 -145.5zM580 76q87 0 129.5 101t42.5 317t-42.5 317.5t-129.5 101.5q-88 0 -131 -101t-43 -318q0 -216 42.5 -317t131.5 -101z
M825 1178q-65 0 -111 40.5t-46 108.5q0 67 46.5 108.5t110.5 41.5q65 0 111.5 -41.5t46.5 -108.5q0 -68 -46 -108.5t-112 -40.5zM334 1178q-65 0 -111.5 40.5t-46.5 108.5q0 67 47 108.5t111 41.5q66 0 112 -41.5t46 -108.5q0 -68 -45.5 -108.5t-112.5 -40.5z" />
    <glyph glyph-name="divide" unicode="&#xf7;" horiz-adv-x="1114" 
d="M557 135q-63 0 -107 41.5t-44 102.5t44 103t107 42q64 0 108 -41.5t44 -103.5q0 -61 -43.5 -102.5t-108.5 -41.5zM557 897q-63 0 -107 42t-44 103t44 103.5t107 42.5q64 0 108 -42t44 -104t-44 -103.5t-108 -41.5zM1055 571h-994v181h994v-181z" />
    <glyph glyph-name="oslash" unicode="&#xf8;" horiz-adv-x="1157" 
d="M1047 985l-91 -113q144 -144 144 -372q0 -240 -141.5 -385.5t-378.5 -145.5q-159 0 -287 72l-88 -111l-96 76l90 113q-140 143 -140 381q0 231 149 376.5t372 145.5q154 0 280 -74l92 115zM389 494q0 -51 4 -129l340 423q-49 125 -153 125q-97 0 -144 -101t-47 -318z
M580 76q96 0 143 101t47 317q0 76 -6 137l-340 -426q45 -129 156 -129z" />
    <glyph glyph-name="ugrave" unicode="&#xf9;" horiz-adv-x="1243" 
d="M1202 -2l-420 -21l-12 170q-136 -178 -332 -178q-293 0 -288 369l8 500l-119 26v86l418 60l32 -23l-10 -289v-362q0 -91 28 -129.5t83 -38.5q81 0 176 92l8 580l-112 24v80l407 66l33 -23l-6 -289v-581l106 -23v-96zM739 1196l-77 -63q-81 63 -228 172q-66 50 -97.5 89.5
t-31.5 82.5q0 51 34.5 81.5t78.5 30.5q49 0 83 -28t77 -99q129 -211 161 -266z" />
    <glyph glyph-name="uacute" unicode="&#xfa;" horiz-adv-x="1243" 
d="M1202 -2l-420 -21l-12 170q-136 -178 -332 -178q-293 0 -288 369l8 500l-119 26v86l418 60l32 -23l-10 -289v-362q0 -91 28 -129.5t83 -38.5q81 0 176 92l8 580l-112 24v80l407 66l33 -23l-6 -289v-581l106 -23v-96zM475 1196q54 95 160 264q43 71 77.5 100t84.5 29
q44 0 77 -30.5t33 -81.5q0 -44 -32 -84.5t-97 -87.5q-119 -90 -225 -172z" />
    <glyph glyph-name="ucircumflex" unicode="&#xfb;" horiz-adv-x="1243" 
d="M1202 -2l-420 -21l-12 170q-136 -178 -332 -178q-293 0 -288 369l8 500l-119 26v86l418 60l32 -23l-10 -289v-362q0 -91 28 -129.5t83 -38.5q81 0 176 92l8 580l-112 24v80l407 66l33 -23l-6 -289v-581l106 -23v-96zM905 1116l-274 211l-275 -211l-73 68l282 358h131
l283 -358z" />
    <glyph glyph-name="udieresis" unicode="&#xfc;" horiz-adv-x="1243" 
d="M1202 -2l-420 -21l-12 170q-136 -178 -332 -178q-293 0 -288 369l8 500l-119 26v86l418 60l32 -23l-10 -289v-362q0 -91 28 -129.5t83 -38.5q81 0 176 92l8 580l-112 24v80l407 66l33 -23l-6 -289v-581l106 -23v-96zM389 1178q-65 0 -111.5 40.5t-46.5 108.5
q0 67 47 108.5t111 41.5q66 0 112 -41.5t46 -108.5q0 -68 -45.5 -108.5t-112.5 -40.5zM881 1178q-65 0 -111.5 40.5t-46.5 108.5q0 67 47 108.5t111 41.5q65 0 111 -41.5t46 -108.5q0 -68 -45.5 -108.5t-111.5 -40.5z" />
    <glyph glyph-name="yacute" unicode="&#xfd;" horiz-adv-x="1093" 
d="M213 -485q-82 0 -144.5 44.5t-66.5 108.5q11 65 58 99t110 34q112 0 176 -96l14 -20q90 97 140 235v2l-408 963l-96 16v88h582v-88l-138 -24l201 -555l195 555l-136 24v88h385v-88l-116 -20l-373 -965q-32 -83 -60.5 -143t-63 -111t-72 -82t-84.5 -48t-103 -17zM543 1196
q66 115 159 264q43 71 77.5 100t84.5 29q44 0 77.5 -30.5t33.5 -81.5q0 -44 -32 -84.5t-97 -87.5q-119 -90 -225 -172z" />
    <glyph glyph-name="thorn" unicode="&#xfe;" horiz-adv-x="1234" 
d="M829 496q0 177 -54 262.5t-150 85.5q-66 0 -138 -58v-591q63 -54 136 -54q93 0 149.5 90t56.5 265zM616 -369v-96h-573v96l113 25q4 254 4 338v1298l-127 17v86l422 92l34 -21l-8 -286v-287q126 129 293 129q176 0 289 -136.5t113 -383.5q0 -120 -36 -222t-96.5 -169
t-139.5 -104.5t-165 -37.5q-155 0 -258 109v-84q0 -82 4 -332z" />
    <glyph glyph-name="ydieresis" unicode="&#xff;" horiz-adv-x="1093" 
d="M213 -485q-82 0 -144.5 44.5t-66.5 108.5q11 65 58 99t110 34q112 0 176 -96l14 -20q90 97 140 235v2l-408 963l-96 16v88h582v-88l-138 -24l201 -555l195 555l-136 24v88h385v-88l-116 -20l-373 -965q-32 -83 -60.5 -143t-63 -111t-72 -82t-84.5 -48t-103 -17zM401 1178
q-65 0 -111 40.5t-46 108.5q0 67 46.5 108.5t110.5 41.5q66 0 112 -41.5t46 -108.5q0 -68 -45.5 -108.5t-112.5 -40.5zM893 1178q-65 0 -111.5 40.5t-46.5 108.5q0 67 47 108.5t111 41.5q65 0 111.5 -41.5t46.5 -108.5q0 -68 -46 -108.5t-112 -40.5z" />
    <glyph glyph-name="Amacron" unicode="&#x100;" horiz-adv-x="1382" 
d="M373 1493v182h659v-182h-659zM594 1032l-170 -522h336zM18 0v111l166 24l416 1213h211l420 -1227l125 -15v-106h-633v106l158 21l-84 264h-412l-82 -256l156 -24v-111h-441z" />
    <glyph glyph-name="amacron" unicode="&#x101;" horiz-adv-x="1087" 
d="M850 -29q-176 0 -225 148q-51 -54 -85.5 -82.5t-87 -48t-120.5 -19.5q-122 0 -195.5 68.5t-73.5 193.5q0 57 18 102t61.5 87.5t122 79.5t194.5 71q62 18 155 41v68q0 137 -33.5 186t-131.5 49q-36 0 -56 -2l-10 -90q-3 -96 -44.5 -143t-105.5 -47q-113 0 -137 102
q8 131 131 209t340 78q196 0 281.5 -90.5t85.5 -296.5v-459q0 -59 45 -59q18 0 31 9.5t30 35.5l56 -37q-36 -82 -94.5 -118t-151.5 -36zM219 1202v182h651v-182h-651zM367 285q0 -74 33.5 -112t88.5 -38q28 0 55 12t70 43v334q-45 -15 -96 -35q-151 -64 -151 -204z" />
    <glyph glyph-name="Abreve" unicode="&#x102;" horiz-adv-x="1382" 
d="M594 1032l-170 -522h336zM18 0v111l166 24l416 1213h211l420 -1227l125 -15v-106h-633v106l158 21l-84 264h-412l-82 -256l156 -24v-111h-441zM365 1718l94 37q72 -147 243 -147q169 0 244 147l94 -37q-24 -121 -107.5 -198.5t-230.5 -77.5t-230 77t-107 199z" />
    <glyph glyph-name="abreve" unicode="&#x103;" horiz-adv-x="1087" 
d="M850 -29q-176 0 -225 148q-51 -54 -85.5 -82.5t-87 -48t-120.5 -19.5q-122 0 -195.5 68.5t-73.5 193.5q0 57 18 102t61.5 87.5t122 79.5t194.5 71q62 18 155 41v68q0 137 -33.5 186t-131.5 49q-36 0 -56 -2l-10 -90q-3 -96 -44.5 -143t-105.5 -47q-113 0 -137 102
q8 131 131 209t340 78q196 0 281.5 -90.5t85.5 -296.5v-459q0 -59 45 -59q18 0 31 9.5t30 35.5l56 -37q-36 -82 -94.5 -118t-151.5 -36zM213 1479l100 30q77 -180 232 -180q84 0 141.5 49.5t89.5 130.5l101 -30q-4 -44 -16.5 -86.5t-38 -86t-62 -75.5t-92 -52t-123.5 -20
t-123.5 20t-92 52t-62 75.5t-38 86t-16.5 86.5zM367 285q0 -74 33.5 -112t88.5 -38q28 0 55 12t70 43v334q-45 -15 -96 -35q-151 -64 -151 -204z" />
    <glyph glyph-name="Aogonek" unicode="&#x104;" horiz-adv-x="1382" 
d="M594 1032l-170 -522h336zM18 0v111l166 24l416 1213h211l420 -1227l125 -15v-106h-189q-86 -61 -86 -158q0 -63 39.5 -99t106.5 -36q52 0 110 21l31 -88q-46 -48 -118.5 -74.5t-151.5 -26.5q-106 0 -167 56t-61 143q0 167 201 262h-348v106l158 21l-84 264h-412l-82 -256
l156 -24v-111h-441z" />
    <glyph glyph-name="aogonek" unicode="&#x105;" horiz-adv-x="1087" 
d="M657 -262q0 145 181 231q-165 9 -211 150q-52 -55 -86.5 -82.5t-87.5 -47.5t-121 -20q-122 0 -195.5 68.5t-73.5 193.5q0 57 18 102t61.5 87.5t122 79.5t194.5 71q62 18 155 41v68q0 136 -34 185.5t-131 49.5q-36 0 -56 -2l-8 -92q-3 -96 -45.5 -144t-106.5 -48
q-113 0 -137 104q8 131 131.5 210t339.5 79q196 0 281.5 -90.5t85.5 -296.5v-457q0 -61 43 -61q31 0 63 45l56 -37q-38 -78 -111 -127q-58 -41 -86.5 -77.5t-28.5 -84.5q0 -58 40 -93.5t106 -35.5q60 0 110 21l29 -88q-111 -103 -272 -103q-103 0 -164.5 57t-61.5 144z
M367 285q0 -74 33.5 -112t88.5 -38q28 0 55 12t70 43v334q-45 -15 -96 -35q-151 -64 -151 -204z" />
    <glyph glyph-name="Cacute" unicode="&#x106;" horiz-adv-x="1273" 
d="M834 80q83 0 172 39l57 262h156l-9 -315q-198 -105 -430 -105q-150 0 -278 45t-225 131.5t-152 224t-55 312.5q0 141 38.5 259t106 200t159.5 139.5t198 84.5t223 27q217 0 401 -102l8 -317h-155l-60 268q-69 35 -147 35q-84 0 -156 -35t-130 -105t-91 -187t-33 -269
t32 -268t88 -185.5t127 -104t155 -34.5zM641 1518q82 80 227 217q49 46 82.5 64t69.5 18q48 0 80.5 -32t32.5 -73q0 -81 -117 -133q-58 -27 -166.5 -74.5t-151.5 -66.5z" />
    <glyph glyph-name="cacute" unicode="&#x107;" horiz-adv-x="1050" 
d="M645 915q-46 0 -88 -22t-78.5 -66t-58 -121t-21.5 -176q0 -174 78 -270t209 -96q129 0 229 115l72 -64q-119 -246 -420 -246q-106 0 -197.5 34t-161.5 98t-110.5 164.5t-40.5 226.5q0 163 75 285t199.5 183.5t278.5 61.5q159 0 265.5 -86.5t117.5 -212.5
q-17 -56 -50.5 -81.5t-88.5 -25.5q-66 0 -108 46.5t-48 148.5l-14 102q-12 2 -39 2zM449 1196q66 115 159 264q43 71 77.5 100t84.5 29q44 0 77.5 -30.5t33.5 -81.5q0 -44 -32 -84.5t-97 -87.5q-164 -124 -226 -172z" />
    <glyph glyph-name="Ccircumflex" unicode="&#x108;" horiz-adv-x="1273" 
d="M834 80q83 0 172 39l57 262h156l-9 -315q-198 -105 -430 -105q-150 0 -278 45t-225 131.5t-152 224t-55 312.5q0 141 38.5 259t106 200t159.5 139.5t198 84.5t223 27q217 0 401 -102l8 -317h-155l-60 268q-69 35 -147 35q-84 0 -156 -35t-130 -105t-91 -187t-33 -269
t32 -268t88 -185.5t127 -104t155 -34.5zM823 1790l307 -309l-61 -74l-315 174l-316 -174l-61 74l307 309h139z" />
    <glyph glyph-name="ccircumflex" unicode="&#x109;" horiz-adv-x="1050" 
d="M645 915q-46 0 -88 -22t-78.5 -66t-58 -121t-21.5 -176q0 -174 78 -270t209 -96q129 0 229 115l72 -64q-119 -246 -420 -246q-106 0 -197.5 34t-161.5 98t-110.5 164.5t-40.5 226.5q0 163 75 285t199.5 183.5t278.5 61.5q159 0 265.5 -86.5t117.5 -212.5
q-17 -56 -50.5 -81.5t-88.5 -25.5q-66 0 -108 46.5t-48 148.5l-14 102q-12 2 -39 2zM870 1116l-274 211l-274 -211l-74 68l282 358h132l282 -358z" />
    <glyph glyph-name="Cdotaccent" unicode="&#x10a;" horiz-adv-x="1273" 
d="M834 80q83 0 172 39l57 262h156l-9 -315q-198 -105 -430 -105q-150 0 -278 45t-225 131.5t-152 224t-55 312.5q0 141 38.5 259t106 200t159.5 139.5t198 84.5t223 27q217 0 401 -102l8 -317h-155l-60 268q-69 35 -147 35q-84 0 -156 -35t-130 -105t-91 -187t-33 -269
t32 -268t88 -185.5t127 -104t155 -34.5zM760 1452q-73 0 -123.5 46.5t-50.5 117.5q0 70 50.5 116t123.5 46t123.5 -46t50.5 -116q0 -71 -50.5 -117.5t-123.5 -46.5z" />
    <glyph glyph-name="cdotaccent" unicode="&#x10b;" horiz-adv-x="1050" 
d="M645 915q-46 0 -88 -22t-78.5 -66t-58 -121t-21.5 -176q0 -174 78 -270t209 -96q129 0 229 115l72 -64q-119 -246 -420 -246q-106 0 -197.5 34t-161.5 98t-110.5 164.5t-40.5 226.5q0 163 75 285t199.5 183.5t278.5 61.5q159 0 265.5 -86.5t117.5 -212.5
q-17 -56 -50.5 -81.5t-88.5 -25.5q-66 0 -108 46.5t-48 148.5l-14 102q-12 2 -39 2zM629 1167q-73 0 -123.5 46t-50.5 116q0 71 50.5 117.5t123.5 46.5t123.5 -46.5t50.5 -117.5q0 -70 -50.5 -116t-123.5 -46z" />
    <glyph glyph-name="Ccaron" unicode="&#x10c;" horiz-adv-x="1273" 
d="M834 80q83 0 172 39l57 262h156l-9 -315q-198 -105 -430 -105q-150 0 -278 45t-225 131.5t-152 224t-55 312.5q0 141 38.5 259t106 200t159.5 139.5t198 84.5t223 27q217 0 401 -102l8 -317h-155l-60 268q-69 35 -147 35q-84 0 -156 -35t-130 -105t-91 -187t-33 -269
t32 -268t88 -185.5t127 -104t155 -34.5zM498 1827l282 -185l283 185l70 -66l-265 -303h-176l-262 303z" />
    <glyph glyph-name="ccaron" unicode="&#x10d;" horiz-adv-x="1050" 
d="M645 915q-46 0 -88 -22t-78.5 -66t-58 -121t-21.5 -176q0 -174 78 -270t209 -96q129 0 229 115l72 -64q-119 -246 -420 -246q-106 0 -197.5 34t-161.5 98t-110.5 164.5t-40.5 226.5q0 163 75 285t199.5 183.5t278.5 61.5q159 0 265.5 -86.5t117.5 -212.5
q-17 -56 -50.5 -81.5t-88.5 -25.5q-66 0 -108 46.5t-48 148.5l-14 102q-12 2 -39 2zM348 1571l252 -213l252 213l80 -66l-244 -348h-176l-244 348z" />
    <glyph glyph-name="Dcaron" unicode="&#x10e;" horiz-adv-x="1443" 
d="M225 641v70q0 340 -4 508l-153 16v111h608q327 0 512.5 -179t185.5 -491q0 -317 -198 -496.5t-537 -179.5h-571v111l153 16q4 166 4 514zM569 643q0 -352 4 -524h68q176 0 277.5 146t101.5 409q0 266 -100.5 409.5t-276.5 143.5h-70q-4 -170 -4 -516v-68zM406 1812
l282 -184l283 184l69 -65l-264 -303h-176l-262 303z" />
    <glyph glyph-name="dcaron" unicode="&#x10f;" horiz-adv-x="1251" 
d="M1323 1507q55 0 76.5 -24.5t21.5 -71.5q0 -83 -63 -223l-62 -127h-98l10 414q52 32 115 32zM406 489q0 -165 58 -253.5t154 -88.5q70 0 127 48v610q-55 43 -120 43q-98 0 -158.5 -91.5t-60.5 -267.5zM1171 0l-399 -23l-16 119q-118 -127 -289 -127q-179 0 -293.5 136.5
t-114.5 379.5q0 121 38 224t101 170.5t144 105t168 37.5q151 0 248 -111v377l-144 21v86l433 92l32 -21l-8 -286v-1063l100 -21v-96z" />
    <glyph glyph-name="Dcroat" unicode="&#x110;" horiz-adv-x="1443" 
d="M68 1235v111h608q327 0 512.5 -179t185.5 -491q0 -317 -198 -496.5t-537 -179.5h-571v111l153 16q4 166 4 504h-157v119h157q0 313 -4 469zM807 631h-238q0 -350 4 -512h68q176 0 277.5 146t101.5 409q0 266 -100.5 409.5t-276.5 143.5h-70q-4 -170 -4 -477h238v-119z
" />
    <glyph glyph-name="dcroat" unicode="&#x111;" horiz-adv-x="1216" 
d="M406 479q0 -159 58 -245.5t154 -86.5q66 0 127 48v579q-55 43 -120 43q-98 0 -158.5 -87.5t-60.5 -250.5zM420 1090v118h338v90l-144 11v86l433 92l32 -21l-6 -258h115v-118h-117v-971l100 -23v-96l-399 -23l-16 119q-115 -127 -289 -127q-179 0 -293.5 133.5
t-114.5 372.5q0 116 38 214.5t101 163t143.5 100.5t166.5 36q156 0 250 -108v209h-338z" />
    <glyph glyph-name="Emacron" unicode="&#x112;" horiz-adv-x="1218" 
d="M225 635v76q0 340 -4 508l-153 16v111h1044l14 -353h-170l-41 238h-342q-4 -156 -4 -475h222l24 159h119v-440h-119l-24 160h-222q0 -354 4 -520h383l41 237h170l-14 -352h-1085v111l153 16q4 166 4 508zM332 1493v182h659v-182h-659z" />
    <glyph glyph-name="emacron" unicode="&#x113;" horiz-adv-x="1067" 
d="M565 915q-66 0 -109.5 -77.5t-49.5 -251.5h174q72 0 98.5 29t26.5 100q0 97 -40 148.5t-100 51.5zM586 1022q198 0 311 -121.5t113 -312.5q0 -55 -13 -109h-591q10 -156 85.5 -235.5t188.5 -79.5q141 0 248 110l71 -65q-124 -240 -430 -240q-228 0 -369 140.5t-141 384.5
q0 124 45 226t120 167t168.5 100t193.5 35zM244 1202v182h651v-182h-651z" />
    <glyph glyph-name="Ebreve" unicode="&#x114;" horiz-adv-x="1218" 
d="M225 635v76q0 340 -4 508l-153 16v111h1044l14 -353h-170l-41 238h-342q-4 -156 -4 -475h222l24 159h119v-440h-119l-24 160h-222q0 -354 4 -520h383l41 237h170l-14 -352h-1085v111l153 16q4 166 4 508zM299 1724l94 37q72 -147 244 -147q169 0 244 147l94 -37
q-24 -121 -107.5 -198.5t-230.5 -77.5t-230.5 77.5t-107.5 198.5z" />
    <glyph glyph-name="ebreve" unicode="&#x115;" horiz-adv-x="1067" 
d="M565 915q-66 0 -109.5 -77.5t-49.5 -251.5h174q72 0 98.5 29t26.5 100q0 97 -40 148.5t-100 51.5zM586 1022q198 0 311 -121.5t113 -312.5q0 -55 -13 -109h-591q10 -156 85.5 -235.5t188.5 -79.5q141 0 248 110l71 -65q-124 -240 -430 -240q-228 0 -369 140.5t-141 384.5
q0 124 45 226t120 167t168.5 100t193.5 35zM223 1479l101 30q77 -180 231 -180q84 0 141.5 49.5t89.5 130.5l101 -30q-4 -44 -16.5 -86.5t-38 -86t-62 -75.5t-92 -52t-123.5 -20t-123.5 20t-92 52t-62 75.5t-38 86t-16.5 86.5z" />
    <glyph glyph-name="Edotaccent" unicode="&#x116;" horiz-adv-x="1218" 
d="M225 635v76q0 340 -4 508l-153 16v111h1044l14 -353h-170l-41 238h-342q-4 -156 -4 -475h222l24 159h119v-440h-119l-24 160h-222q0 -354 4 -520h383l41 237h170l-14 -352h-1085v111l153 16q4 166 4 508zM655 1452q-73 0 -123.5 46.5t-50.5 117.5q0 70 50.5 116t123.5 46
t123.5 -46t50.5 -116q0 -71 -50.5 -117.5t-123.5 -46.5z" />
    <glyph glyph-name="edotaccent" unicode="&#x117;" horiz-adv-x="1067" 
d="M565 915q-66 0 -109.5 -77.5t-49.5 -251.5h174q72 0 98.5 29t26.5 100q0 97 -40 148.5t-100 51.5zM586 1022q198 0 311 -121.5t113 -312.5q0 -55 -13 -109h-591q10 -156 85.5 -235.5t188.5 -79.5q141 0 248 110l71 -65q-124 -240 -430 -240q-228 0 -369 140.5t-141 384.5
q0 124 45 226t120 167t168.5 100t193.5 35zM588 1167q-73 0 -123.5 46t-50.5 116q0 71 50.5 117.5t123.5 46.5t123.5 -46.5t50.5 -117.5q0 -70 -50.5 -116t-123.5 -46z" />
    <glyph glyph-name="Eogonek" unicode="&#x118;" horiz-adv-x="1218" 
d="M225 635v76q0 340 -4 508l-153 16v111h1044l14 -353h-170l-41 238h-342q-4 -156 -4 -475h222l24 159h119v-440h-119l-24 160h-222q0 -354 4 -520h383l41 237h170l-14 -352h-141q-86 -61 -86 -158q0 -63 39.5 -99t105.5 -36q53 0 111 21l30 -88q-46 -48 -118.5 -74.5
t-151.5 -26.5q-106 0 -166.5 56t-60.5 143q0 168 200 262h-847v111l153 16q4 166 4 508z" />
    <glyph glyph-name="eogonek" unicode="&#x119;" horiz-adv-x="1067" 
d="M563 915q-64 0 -107 -77t-50 -252h174q72 0 98.5 28.5t26.5 100.5q0 97 -40 148.5t-102 51.5zM485 -262q0 146 146 235q-40 -4 -62 -4q-226 0 -368 143.5t-142 385.5q0 123 45 224.5t120 165.5t168.5 99t193.5 35q198 0 311 -121.5t113 -312.5q0 -55 -13 -109h-591
q10 -156 85.5 -235.5t188.5 -79.5q141 0 248 110l71 -65q-63 -121 -186 -191q-117 -67 -117 -176q0 -62 40.5 -98.5t105.5 -36.5q56 0 110 21l29 -88q-96 -101 -270 -101q-105 0 -165.5 56t-60.5 143z" />
    <glyph glyph-name="Ecaron" unicode="&#x11a;" horiz-adv-x="1218" 
d="M225 635v76q0 340 -4 508l-153 16v111h1044l14 -353h-170l-41 238h-342q-4 -156 -4 -475h222l24 159h119v-440h-119l-24 160h-222q0 -354 4 -520h383l41 237h170l-14 -352h-1085v111l153 16q4 166 4 508zM362 1812l283 -184l283 184l69 -65l-264 -303h-176l-262 303z" />
    <glyph glyph-name="ecaron" unicode="&#x11b;" horiz-adv-x="1067" 
d="M565 915q-66 0 -109.5 -77.5t-49.5 -251.5h174q72 0 98.5 29t26.5 100q0 97 -40 148.5t-100 51.5zM586 1022q198 0 311 -121.5t113 -312.5q0 -55 -13 -109h-591q10 -156 85.5 -235.5t188.5 -79.5q141 0 248 110l71 -65q-124 -240 -430 -240q-228 0 -369 140.5t-141 384.5
q0 124 45 226t120 167t168.5 100t193.5 35zM319 1571l252 -213l252 213l80 -66l-244 -348h-176l-243 348z" />
    <glyph glyph-name="Gcircumflex" unicode="&#x11c;" horiz-adv-x="1382" 
d="M1241 168v-86q-211 -121 -463 -121q-320 0 -514 192t-194 523q0 326 194 517t539 191q217 0 395 -94l8 -319h-157l-60 266q-76 31 -147 31q-85 0 -157.5 -36t-130 -106.5t-90 -186t-32.5 -263.5q0 -149 31.5 -265t87.5 -187.5t128.5 -108.5t158.5 -37q44 0 77 8v88
q0 116 -4 354l-184 25v111h625v-111l-107 -14q-4 -246 -4 -371zM829 1790l308 -309l-62 -74l-315 174l-316 -174l-61 74l307 309h139z" />
    <glyph glyph-name="gcircumflex" unicode="&#x11d;" horiz-adv-x="1112" 
d="M506 924q-68 0 -103.5 -61t-35.5 -171q0 -233 135 -233q71 0 107 62t36 173q0 108 -36 169t-103 61zM76 690q0 149 109 240.5t319 91.5q213 0 325 -94l230 98l33 -20v-158h-195q37 -67 37 -158q0 -145 -110 -236.5t-320 -91.5q-104 0 -187 25q-24 -43 -24 -94
q0 -78 119 -78h239q420 0 420 -299q0 -163 -158.5 -272t-441.5 -109q-123 0 -211.5 19.5t-137 54t-70 75.5t-21.5 91q0 133 170 211q-119 50 -119 164q0 130 158 266q-81 42 -122.5 113t-41.5 161zM504 -344q149 0 229 44t80 114q0 50 -36 83t-113 33h-215q-109 0 -187 19
q-33 -56 -33 -119q0 -90 67 -132t208 -42zM788 1116l-274 211l-274 -211l-74 68l283 358h131l282 -358z" />
    <glyph glyph-name="Gbreve" unicode="&#x11e;" horiz-adv-x="1382" 
d="M1241 168v-86q-211 -121 -463 -121q-320 0 -514 192t-194 523q0 326 194 517t539 191q217 0 395 -94l8 -319h-157l-60 266q-76 31 -147 31q-85 0 -157.5 -36t-130 -106.5t-90 -186t-32.5 -263.5q0 -149 31.5 -265t87.5 -187.5t128.5 -108.5t158.5 -37q44 0 77 8v88
q0 116 -4 354l-184 25v111h625v-111l-107 -14q-4 -246 -4 -371zM436 1724l94 37q72 -147 244 -147q169 0 244 147l94 -37q-24 -121 -107.5 -198.5t-230.5 -77.5t-230.5 77.5t-107.5 198.5z" />
    <glyph glyph-name="gbreve" unicode="&#x11f;" horiz-adv-x="1112" 
d="M506 924q-68 0 -103.5 -61t-35.5 -171q0 -233 135 -233q71 0 107 62t36 173q0 108 -36 169t-103 61zM76 690q0 149 109 240.5t319 91.5q213 0 325 -94l230 98l33 -20v-158h-195q37 -67 37 -158q0 -145 -110 -236.5t-320 -91.5q-104 0 -187 25q-24 -43 -24 -94
q0 -78 119 -78h239q420 0 420 -299q0 -163 -158.5 -272t-441.5 -109q-123 0 -211.5 19.5t-137 54t-70 75.5t-21.5 91q0 133 170 211q-119 50 -119 164q0 130 158 266q-81 42 -122.5 113t-41.5 161zM504 -344q149 0 229 44t80 114q0 50 -36 83t-113 33h-215q-109 0 -187 19
q-33 -56 -33 -119q0 -90 67 -132t208 -42zM193 1479l100 30q77 -180 231 -180q84 0 142 49.5t90 130.5l100 -30q-4 -44 -16.5 -86.5t-38 -86t-62 -75.5t-92 -52t-123.5 -20q-84 0 -148.5 29.5t-101.5 79t-56.5 102t-24.5 109.5z" />
    <glyph glyph-name="Gdotaccent" unicode="&#x120;" horiz-adv-x="1382" 
d="M1241 168v-86q-211 -121 -463 -121q-320 0 -514 192t-194 523q0 326 194 517t539 191q217 0 395 -94l8 -319h-157l-60 266q-76 31 -147 31q-85 0 -157.5 -36t-130 -106.5t-90 -186t-32.5 -263.5q0 -149 31.5 -265t87.5 -187.5t128.5 -108.5t158.5 -37q44 0 77 8v88
q0 116 -4 354l-184 25v111h625v-111l-107 -14q-4 -246 -4 -371zM776 1452q-73 0 -123.5 46.5t-50.5 117.5q0 70 50.5 116t123.5 46t123.5 -46t50.5 -116q0 -71 -50.5 -117.5t-123.5 -46.5z" />
    <glyph glyph-name="gdotaccent" unicode="&#x121;" horiz-adv-x="1112" 
d="M506 924q-68 0 -103.5 -61t-35.5 -171q0 -233 135 -233q71 0 107 62t36 173q0 108 -36 169t-103 61zM518 1167q-73 0 -123.5 46t-50.5 116q0 71 50.5 117.5t123.5 46.5t123.5 -46.5t50.5 -117.5q0 -70 -50.5 -116t-123.5 -46zM76 690q0 149 109 240.5t319 91.5
q213 0 325 -94l230 98l33 -20v-158h-195q37 -67 37 -158q0 -145 -110 -236.5t-320 -91.5q-104 0 -187 25q-24 -43 -24 -94q0 -78 119 -78h239q420 0 420 -299q0 -163 -158.5 -272t-441.5 -109q-123 0 -211.5 19.5t-137 54t-70 75.5t-21.5 91q0 133 170 211q-119 50 -119 164
q0 130 158 266q-81 42 -122.5 113t-41.5 161zM504 -344q149 0 229 44t80 114q0 50 -36 83t-113 33h-215q-109 0 -187 19q-33 -56 -33 -119q0 -90 67 -132t208 -42z" />
    <glyph glyph-name="uni0122" unicode="&#x122;" horiz-adv-x="1382" 
d="M1241 168v-86q-211 -121 -463 -121q-320 0 -514 192t-194 523q0 326 194 517t539 191q217 0 395 -94l8 -319h-157l-60 266q-76 31 -147 31q-85 0 -157.5 -36t-130 -106.5t-90 -186t-32.5 -263.5q0 -149 31.5 -265t87.5 -187.5t128.5 -108.5t158.5 -37q44 0 77 8v88
q0 116 -4 354l-184 25v111h625v-111l-107 -14q-4 -246 -4 -371zM971 -258q0 -99 -85 -174t-222 -119l-31 80q57 24 88.5 41t58.5 41q-112 58 -112 149q0 57 43 94t106 37q69 0 133 -45q21 -62 21 -104z" />
    <glyph glyph-name="uni0123" unicode="&#x123;" horiz-adv-x="1112" 
d="M365 1313q0 97 84.5 172t222.5 121l30 -82q-100 -40 -147 -82q113 -58 113 -148q0 -58 -43 -95.5t-107 -37.5q-65 0 -133 45q-20 59 -20 107zM506 924q-68 0 -103.5 -61t-35.5 -171q0 -233 135 -233q71 0 107 62t36 173q0 108 -36 169t-103 61zM504 -344q149 0 229 44
t80 114q0 50 -36 83t-113 33h-215q-109 0 -187 19q-33 -56 -33 -119q0 -90 67 -132t208 -42zM76 690q0 149 109 240.5t319 91.5q213 0 325 -94l230 98l33 -20v-158h-195q37 -67 37 -158q0 -145 -110 -236.5t-320 -91.5q-104 0 -187 25q-24 -43 -24 -94q0 -78 119 -78h239
q420 0 420 -299q0 -163 -158.5 -272t-441.5 -109q-123 0 -211.5 19.5t-137 54t-70 75.5t-21.5 91q0 133 170 211q-119 50 -119 164q0 130 158 266q-81 42 -122.5 113t-41.5 161z" />
    <glyph glyph-name="Hcircumflex" unicode="&#x124;" horiz-adv-x="1566" 
d="M221 635v76q0 338 -4 508l-149 16v111h645v-111l-144 -14q-4 -168 -4 -469h436q0 313 -4 469l-143 14v111h647v-111l-151 -16q-4 -166 -4 -508v-76q0 -340 4 -508l151 -16v-111h-647v111l143 14q4 168 4 506h-436q0 -344 4 -506l144 -14v-111h-645v111l149 16
q4 166 4 508zM854 1790l307 -309l-61 -74l-316 174l-315 -174l-61 74l307 309h139z" />
    <glyph glyph-name="hcircumflex" unicode="&#x125;" horiz-adv-x="1263" 
d="M170 430v858l-127 21v86l424 92l33 -21l-8 -286v-330q82 93 158 132.5t167 39.5q139 0 219 -89.5t80 -262.5v-240q0 -213 2 -313l103 -21v-96h-539v96l106 23q3 150 3 311v215q0 100 -24 139t-87 39q-82 0 -182 -94v-299q0 -213 2 -313l96 -21v-96h-539v96l111 25
q2 98 2 309zM696 1903l308 -310l-62 -73l-315 174l-316 -174l-61 73l307 310h139z" />
    <glyph glyph-name="Hbar" unicode="&#x126;" horiz-adv-x="1562" 
d="M221 635v76v194h-178v119h178q-1 33 -2 97.5t-2 97.5l-149 16v111h645v-111l-144 -14q-1 -33 -2 -98.5t-2 -98.5h430q-1 33 -2 98.5t-2 98.5l-143 14v111h647v-111l-152 -16q-1 -32 -2 -97t-2 -98h179v-119h-179v-194v-76q0 -340 4 -508l152 -16v-111h-647v111l143 14
q4 145 4 450h-430q0 -303 4 -450l144 -14v-111h-645v111l149 16q4 166 4 508zM565 725v-29h430v29v180h-430v-180z" />
    <glyph glyph-name="hbar" unicode="&#x127;" horiz-adv-x="1263" 
d="M57 0v96l111 25q2 98 2 309v643h-131v119h131v96l-127 21v86l424 92l33 -21l-8 -274h301v-119h-301v-274q81 93 157 131.5t168 38.5q139 0 219 -89.5t80 -263.5v-186q0 -213 2 -313l103 -21v-96h-539v96l106 23q3 150 3 311v164q0 100 -24 139t-87 39q-82 0 -182 -94
v-248q0 -213 2 -313l96 -21v-96h-539z" />
    <glyph glyph-name="Itilde" unicode="&#x128;" horiz-adv-x="794" 
d="M225 635v76q0 340 -4 508l-153 16v111h659v-111l-154 -16q-4 -166 -4 -508v-74q0 -342 4 -510l154 -16v-111h-659v111l153 16q4 166 4 508zM27 1475q17 134 79.5 209t153.5 75q71 0 156 -55q3 -2 17 -12.5t19.5 -14t18 -11.5t20.5 -11.5t19.5 -8t21.5 -6.5t21 -2
q87 0 131 123l86 -35q-17 -134 -78.5 -210t-150.5 -76q-80 0 -162 55q-4 3 -20 14.5t-22.5 16t-21 13t-24 12t-23 7t-26.5 3.5q-85 0 -129 -121z" />
    <glyph glyph-name="itilde" unicode="&#x129;" horiz-adv-x="647" 
d="M61 0v96l111 25q2 98 2 309v98q0 135 -6 258l-125 19v80l428 137l35 -23l-6 -297v-272q0 -213 2 -313l102 -21v-96h-543zM-39 1204q17 135 78 210t151 75q67 0 152 -55q63 -47 93 -57q21 -7 40 -7q84 0 127 121l84 -35q-17 -134 -77.5 -210.5t-147.5 -76.5q-67 0 -156 56
q-5 3 -20 14.5t-22 16t-20.5 12.5t-23.5 12t-23 7t-26 3q-82 0 -125 -121z" />
    <glyph glyph-name="Imacron" unicode="&#x12a;" horiz-adv-x="794" 
d="M225 635v76q0 340 -4 508l-153 16v111h659v-111l-154 -16q-4 -166 -4 -508v-74q0 -342 4 -510l154 -16v-111h-659v111l153 16q4 166 4 508zM68 1493v182h659v-182h-659z" />
    <glyph glyph-name="imacron" unicode="&#x12b;" horiz-adv-x="647" 
d="M61 0v96l111 25q2 98 2 309v98q0 135 -6 258l-125 19v80l428 137l35 -23l-6 -297v-272q0 -213 2 -313l102 -21v-96h-543zM-6 1202v182h651v-182h-651z" />
    <glyph glyph-name="Iogonek" unicode="&#x12e;" horiz-adv-x="794" 
d="M264 -262q0 167 201 262h-397v111l153 16q4 166 4 508v76q0 340 -4 508l-153 16v111h659v-111l-154 -16q-4 -166 -4 -508v-74q0 -342 4 -510l154 -16v-111h-166q-86 -61 -86 -158q0 -63 39.5 -99t106.5 -36q52 0 110 21l31 -88q-46 -48 -118.5 -74.5t-151.5 -26.5
q-106 0 -167 56t-61 143z" />
    <glyph glyph-name="iogonek" unicode="&#x12f;" horiz-adv-x="647" 
d="M334 1174q-73 0 -123.5 45.5t-50.5 115.5q0 71 50.5 117.5t123.5 46.5t123.5 -46.5t50.5 -117.5q0 -70 -50.5 -115.5t-123.5 -45.5zM152 -262q0 168 200 262h-291v96l111 25q2 98 2 309v98q0 135 -6 258l-127 19v80l430 137l35 -23l-6 -297v-272q0 -213 2 -313l102 -21
v-96h-155q-87 -61 -87 -158q0 -63 39.5 -99t106.5 -36q52 0 110 21l31 -88q-46 -48 -118.5 -74.5t-151.5 -26.5q-106 0 -166.5 56t-60.5 143z" />
    <glyph glyph-name="Idotaccent" unicode="&#x130;" horiz-adv-x="794" 
d="M225 635v76q0 340 -4 508l-153 16v111h659v-111l-154 -16q-4 -166 -4 -508v-74q0 -342 4 -510l154 -16v-111h-659v111l153 16q4 166 4 508zM397 1452q-73 0 -123.5 46.5t-50.5 117.5q0 70 50.5 116t123.5 46t123.5 -46t50.5 -116q0 -71 -50.5 -117.5t-123.5 -46.5z" />
    <glyph glyph-name="dotlessi" unicode="&#x131;" horiz-adv-x="647" 
d="M61 0v96l111 25q2 98 2 309v98q0 135 -6 258l-125 19v80l428 137l35 -23l-6 -297v-272q0 -213 2 -313l102 -21v-96h-543z" />
    <glyph glyph-name="Jcircumflex" unicode="&#x134;" horiz-adv-x="808" 
d="M72 1235v111h682v-111l-158 -16q-2 -160 -2 -490v-213q0 -214 -21.5 -355.5t-70.5 -238.5q-59 -132 -173.5 -204t-256.5 -72q-177 0 -246 129q1 69 47 110t115 41q51 0 94 -26.5t92 -85.5l43 -52q45 83 45 314q0 83 -2 226t-6.5 406.5t-7.5 508.5zM481 1790l307 -309
l-61 -74l-315 174l-316 -174l-61 74l307 309h139z" />
    <glyph glyph-name="jcircumflex" unicode="&#x135;" horiz-adv-x="628" 
d="M168 156v372q0 135 -6 258l-125 19v80l426 137l37 -23l-6 -297v-598q0 -182 -30 -279t-106 -175q-70 -72 -158 -103.5t-173 -31.5q-109 0 -176 39.5t-93 101.5q7 71 51.5 114.5t108.5 43.5q62 0 111 -29.5t90 -97.5l16 -27q7 15 10 31q9 30 15 66.5t7.5 87.5t2 88.5
t-0.5 110.5t-1 112zM592 1116l-275 211l-274 -211l-74 68l283 358h131l283 -358z" />
    <glyph glyph-name="uni0136" unicode="&#x136;" horiz-adv-x="1425" 
d="M225 635v76q0 340 -4 508l-153 16v111h645v-111l-156 -16q-4 -166 -4 -508v-68l459 567l-135 25v111h475v-111l-195 -25l-270 -323l403 -762l125 -14v-111h-592v111l99 10l-252 510l-117 -139q0 -242 4 -365l133 -16v-111h-622v111l153 16q4 166 4 508zM905 -258
q0 -99 -85 -174t-222 -119l-31 80q108 46 148 82q-113 58 -113 149q0 57 43 94t107 37q69 0 133 -45q20 -59 20 -104z" />
    <glyph glyph-name="uni0137" unicode="&#x137;" horiz-adv-x="1224" 
d="M43 1395l430 92l33 -21l-8 -286v-629l331 323l-139 25v90h477v-90l-184 -27l-180 -170l289 -575l131 -31v-96h-418l-232 489l-75 -71q0 -45 1 -149t1 -150l110 -23v-96h-557v96l115 25q2 100 2 309v858l-127 21v86zM805 -258q0 -99 -85 -174t-222 -119l-31 80
q57 24 88.5 41t58.5 41q-112 58 -112 149q0 57 43 94t106 37q69 0 133 -45q21 -62 21 -104z" />
    <glyph glyph-name="kgreenlandic" unicode="&#x138;" horiz-adv-x="1224" 
d="M57 0v96l111 25q2 98 2 309v119q0 114 -6 237l-125 19v80l430 137l35 -23l-6 -227v-221l331 323l-139 25v90h477v-90l-182 -27l-182 -170l287 -573l133 -33v-96h-420l-230 489l-75 -71q0 -53 1 -156t1 -145l96 -21v-96h-539z" />
    <glyph glyph-name="Lacute" unicode="&#x139;" horiz-adv-x="1187" 
d="M225 711q0 340 -4 508l-153 16v111h675v-111l-170 -16q-4 -168 -4 -508v-109q0 -315 4 -485h355l55 284h166l-21 -401h-1060v111l153 16q4 166 4 465v119zM383 1503q82 80 227 217q49 46 82.5 64t69.5 18q48 0 80 -31.5t32 -72.5q0 -81 -116 -133q-60 -28 -169.5 -76
t-148.5 -66z" />
    <glyph glyph-name="lacute" unicode="&#x13a;" horiz-adv-x="661" 
d="M43 1395l430 92l33 -21l-8 -286v-750q0 -103 4 -311l112 -23v-96h-561v96l113 25q4 204 4 309v858l-127 21v86zM211 1571q82 80 227 217q49 46 82.5 64t69.5 18q48 0 80 -32t32 -73q0 -81 -116 -133q-58 -27 -166.5 -74.5t-151.5 -66.5z" />
    <glyph glyph-name="uni013B" unicode="&#x13b;" horiz-adv-x="1187" 
d="M225 711q0 340 -4 508l-153 16v111h675v-111l-170 -16q-4 -168 -4 -508v-109q0 -315 4 -485h355l55 284h166l-21 -401h-1060v111l153 16q4 166 4 465v119zM774 -258q0 -99 -85 -174t-222 -119l-31 80q108 46 148 82q-113 58 -113 149q0 57 43 94t107 37q69 0 133 -45
q20 -59 20 -104z" />
    <glyph glyph-name="uni013C" unicode="&#x13c;" horiz-adv-x="661" 
d="M43 1395l430 92l33 -21l-8 -286v-750q0 -103 4 -311l112 -23v-96h-561v96l113 25q4 204 4 309v858l-127 21v86zM479 -258q0 -99 -85 -174t-222 -119l-31 80q108 46 148 82q-113 58 -113 149q0 57 43 94t107 37q69 0 133 -45q20 -59 20 -104z" />
    <glyph glyph-name="Lcaron" unicode="&#x13d;" horiz-adv-x="1187" 
d="M1032 1473q55 0 76.5 -25t21.5 -72q0 -83 -63 -223l-59 -127h-101l11 414q59 33 114 33zM225 711q0 340 -4 508l-153 16v111h675v-111l-170 -16q-4 -168 -4 -508v-109q0 -315 4 -485h355l55 284h166l-21 -401h-1060v111l153 16q4 166 4 465v119z" />
    <glyph glyph-name="lcaron" unicode="&#x13e;" horiz-adv-x="675" 
d="M748 1507q55 0 76.5 -24.5t21.5 -71.5q0 -81 -64 -223l-59 -127h-98l8 414q52 32 115 32zM43 1395l430 92l33 -21l-8 -286v-750q0 -103 4 -311l112 -23v-96h-561v96l113 25q4 204 4 309v858l-127 21v86z" />
    <glyph glyph-name="Ldot" unicode="&#x13f;" horiz-adv-x="1187" 
d="M225 711q0 340 -4 508l-153 16v111h675v-111l-170 -16q-4 -168 -4 -508v-109q0 -315 4 -485h355l55 284h166l-21 -401h-1060v111l153 16q4 166 4 465v119zM981 612q-77 0 -130.5 53.5t-53.5 129.5t53.5 131t130.5 55t130.5 -55t53.5 -131t-53.5 -129.5t-130.5 -53.5z" />
    <glyph glyph-name="ldot" unicode="&#x140;" horiz-adv-x="813" 
d="M43 1395l430 92l33 -21l-8 -286v-750q0 -103 4 -311l112 -23v-96h-561v96l113 25q4 204 4 309v858l-127 21v86zM741 551q-77 0 -130.5 53.5t-53.5 128.5q0 76 53.5 131.5t130.5 55.5t131 -55.5t54 -131.5q0 -75 -53.5 -128.5t-131.5 -53.5z" />
    <glyph glyph-name="Lslash" unicode="&#x141;" horiz-adv-x="1187" 
d="M225 711q0 340 -4 508l-153 16v111h675v-111l-170 -16q-4 -133 -4 -398l254 133v-151l-254 -135v-66q0 -315 4 -485h355l55 284h166l-21 -401h-1060v111l153 16q4 129 4 373l-162 -86v151l162 86v60z" />
    <glyph glyph-name="lslash" unicode="&#x142;" horiz-adv-x="661" 
d="M43 1395l430 92l33 -21l-8 -286v-267l135 76v-153l-135 -76v-330q0 -103 4 -311l112 -23v-96h-561v96l113 25q4 204 4 309v166l-131 -74v152l131 74v540l-127 21v86z" />
    <glyph glyph-name="Nacute" unicode="&#x143;" horiz-adv-x="1490" 
d="M893 1235v111h539v-111l-175 -27v-1212h-172l-720 999v-858l233 -26v-111h-541v111l174 24v1047l-28 39l-142 14v111h463l602 -828v690zM596 1495q82 80 227 217q49 46 82.5 64t69.5 18q48 0 80 -31.5t32 -72.5q0 -82 -116 -134q-58 -27 -166.5 -74.5t-151.5 -66.5z" />
    <glyph glyph-name="nacute" unicode="&#x144;" horiz-adv-x="1261" 
d="M819 1022q136 0 215.5 -90t79.5 -262v-240q0 -213 2 -313l103 -21v-96h-541v96l106 23q2 100 2 311v215q0 97 -26 137.5t-86 40.5q-83 0 -176 -75v-318q0 -213 2 -313l96 -21v-96h-539v96l111 25q2 98 2 309v119q0 114 -6 237l-125 19v80l403 137l37 -23l13 -147
q80 92 157.5 131t169.5 39zM592 1196q54 95 160 264q43 72 77.5 100.5t83.5 28.5q44 0 77.5 -30.5t33.5 -81.5q0 -44 -32 -84.5t-97 -87.5q-119 -90 -225 -172z" />
    <glyph glyph-name="uni0145" unicode="&#x145;" horiz-adv-x="1490" 
d="M893 1235v111h539v-111l-175 -27v-1212h-172l-720 999v-858l233 -26v-111h-541v111l174 24v1047l-28 39l-142 14v111h463l602 -828v690zM936 -252q0 -99 -85 -174t-222 -119l-31 80q57 24 88.5 41t58.5 41q-112 58 -112 150q0 57 43 94t106 37q69 0 133 -45
q21 -62 21 -105z" />
    <glyph glyph-name="uni0146" unicode="&#x146;" horiz-adv-x="1261" 
d="M819 1022q136 0 215.5 -90t79.5 -262v-240q0 -213 2 -313l103 -21v-96h-541v96l106 23q2 100 2 311v215q0 97 -26 137.5t-86 40.5q-83 0 -176 -75v-318q0 -213 2 -313l96 -21v-96h-539v96l111 25q2 98 2 309v119q0 114 -6 237l-125 19v80l403 137l37 -23l13 -147
q80 92 157.5 131t169.5 39zM784 -258q0 -99 -85 -174t-222 -119l-31 80q108 46 148 82q-113 58 -113 149q0 57 43 94t107 37q69 0 133 -45q20 -59 20 -104z" />
    <glyph glyph-name="Ncaron" unicode="&#x147;" horiz-adv-x="1490" 
d="M893 1235v111h539v-111l-175 -27v-1212h-172l-720 999v-858l233 -26v-111h-541v111l174 24v1047l-28 39l-142 14v111h463l602 -828v690zM465 1806l283 -184l282 184l70 -65l-264 -303h-177l-262 303z" />
    <glyph glyph-name="ncaron" unicode="&#x148;" horiz-adv-x="1261" 
d="M819 1022q136 0 215.5 -90t79.5 -262v-240q0 -213 2 -313l103 -21v-96h-541v96l106 23q2 100 2 311v215q0 97 -26 137.5t-86 40.5q-83 0 -176 -75v-318q0 -213 2 -313l96 -21v-96h-539v96l111 25q2 98 2 309v119q0 114 -6 237l-125 19v80l403 137l37 -23l13 -147
q80 92 157.5 131t169.5 39zM414 1571l252 -213l252 213l79 -66l-243 -348h-176l-244 348z" />
    <glyph glyph-name="napostrophe" unicode="&#x149;" horiz-adv-x="1650" 
d="M1208 1022q136 0 215.5 -90t79.5 -262v-240q0 -213 2 -313l103 -21v-96h-541v96l107 23q2 100 2 311v215q0 97 -26 137.5t-87 40.5q-83 0 -176 -75v-318q0 -213 2 -313l96 -21v-96h-539v96l111 25q2 98 2 309v119q0 114 -6 237l-125 19v80l403 137l37 -23l13 -147
q80 92 157.5 131t169.5 39zM393 1284q0 -131 -87 -241t-230 -171l-37 78q52 31 101.5 80t84.5 109l-90 63q-80 62 -80 152q0 67 46.5 111t111.5 44q68 0 135 -55q45 -74 45 -170z" />
    <glyph glyph-name="Omacron" unicode="&#x14c;" horiz-adv-x="1437" 
d="M432 674q0 -131 16.5 -237t50 -187t89.5 -125.5t131 -44.5q76 0 132 44.5t89.5 126t49.5 187t16 236.5t-16 236t-49.5 186t-89.5 125.5t-132 44.5q-99 0 -165 -79t-94 -208t-28 -305zM719 1384q102 0 196.5 -27.5t177 -85.5t143.5 -140.5t96.5 -200t35.5 -256.5
q0 -172 -53.5 -310t-144.5 -224.5t-206.5 -132.5t-244.5 -46t-244.5 45t-206.5 131t-144.5 224.5t-53.5 312.5q0 171 54 308.5t145 224t206.5 132t243.5 45.5zM389 1493v182h660v-182h-660z" />
    <glyph glyph-name="omacron" unicode="&#x14d;" horiz-adv-x="1157" 
d="M580 -31q-237 0 -379 146.5t-142 384.5q0 231 149 376.5t372 145.5q146 0 263.5 -63t187 -183t69.5 -276q0 -240 -141.5 -385.5t-378.5 -145.5zM580 76q87 0 129.5 101t42.5 317t-42.5 317.5t-129.5 101.5q-88 0 -131 -101t-43 -318q0 -216 42.5 -317t131.5 -101z
M254 1202v182h651v-182h-651z" />
    <glyph glyph-name="uni014E" unicode="&#x14e;" horiz-adv-x="1437" 
d="M432 674q0 -131 16.5 -237t50 -187t89.5 -125.5t131 -44.5q76 0 132 44.5t89.5 126t49.5 187t16 236.5t-16 236t-49.5 186t-89.5 125.5t-132 44.5q-99 0 -165 -79t-94 -208t-28 -305zM719 1384q102 0 196.5 -27.5t177 -85.5t143.5 -140.5t96.5 -200t35.5 -256.5
q0 -172 -53.5 -310t-144.5 -224.5t-206.5 -132.5t-244.5 -46t-244.5 45t-206.5 131t-144.5 224.5t-53.5 312.5q0 171 54 308.5t145 224t206.5 132t243.5 45.5zM381 1745l94 37q72 -148 244 -148q168 0 244 148l94 -37q-24 -122 -107.5 -199.5t-230.5 -77.5t-230.5 77.5
t-107.5 199.5z" />
    <glyph glyph-name="uni014F" unicode="&#x14f;" horiz-adv-x="1157" 
d="M580 -31q-237 0 -379 146.5t-142 384.5q0 231 149 376.5t372 145.5q146 0 263.5 -63t187 -183t69.5 -276q0 -240 -141.5 -385.5t-378.5 -145.5zM580 76q87 0 129.5 101t42.5 317t-42.5 317.5t-129.5 101.5q-88 0 -131 -101t-43 -318q0 -216 42.5 -317t131.5 -101z
M248 1479l100 30q77 -180 232 -180q84 0 141.5 49.5t89.5 130.5l100 -30q-5 -57 -24.5 -109.5t-56.5 -102t-101.5 -79t-148.5 -29.5q-68 0 -123.5 20t-92 52t-62 75.5t-38 86t-16.5 86.5z" />
    <glyph glyph-name="Ohungarumlaut" unicode="&#x150;" horiz-adv-x="1437" 
d="M432 674q0 -131 16.5 -237t50 -187t89.5 -125.5t131 -44.5q76 0 132 44.5t89.5 126t49.5 187t16 236.5t-16 236t-49.5 186t-89.5 125.5t-132 44.5q-99 0 -165 -79t-94 -208t-28 -305zM719 1384q102 0 196.5 -27.5t177 -85.5t143.5 -140.5t96.5 -200t35.5 -256.5
q0 -172 -53.5 -310t-144.5 -224.5t-206.5 -132.5t-244.5 -46t-244.5 45t-206.5 131t-144.5 224.5t-53.5 312.5q0 171 54 308.5t145 224t206.5 132t243.5 45.5zM473 1470l113 271q42 96 121 96q39 0 67.5 -22.5t28.5 -59.5q0 -44 -45 -98l-203 -234zM799 1470l114 271
q39 96 119 96q39 0 67.5 -22.5t28.5 -59.5q0 -48 -45 -98l-202 -234z" />
    <glyph glyph-name="ohungarumlaut" unicode="&#x151;" horiz-adv-x="1157" 
d="M580 -31q-237 0 -379 146.5t-142 384.5q0 231 149 376.5t372 145.5q146 0 263.5 -63t187 -183t69.5 -276q0 -240 -141.5 -385.5t-378.5 -145.5zM580 76q87 0 129.5 101t42.5 317t-42.5 317.5t-129.5 101.5q-88 0 -131 -101t-43 -318q0 -216 42.5 -317t131.5 -101z
M377 1174l92 290q25 81 62 114.5t87 33.5q41 0 67 -25.5t26 -70.5q0 -53 -68 -144l-182 -244zM676 1180l100 288q48 142 146 142q45 0 70.5 -25.5t25.5 -66.5q0 -61 -72 -148l-186 -240z" />
    <glyph glyph-name="OE" unicode="&#x152;" horiz-adv-x="1904" 
d="M432 674q0 -178 43.5 -310.5t133.5 -208t218 -75.5q26 0 80 4q4 180 4 551v76q0 367 -4 551q-54 4 -80 4q-191 0 -293 -161t-102 -431zM1683 352h172l-14 -352h-760q-132 -39 -280 -39q-122 0 -230 27t-200.5 84.5t-159 140.5t-104 201t-37.5 260t37.5 259t104 200
t159 140t200.5 84t230 27q152 0 280 -38h719l15 -353h-173l-38 238h-344q-5 -195 -5 -475h222l24 159h119v-440h-119l-24 160h-222q0 -313 5 -520h385z" />
    <glyph glyph-name="oe" unicode="&#x153;" horiz-adv-x="1757" 
d="M580 913q-89 0 -131.5 -100.5t-42.5 -316.5q0 -218 42.5 -319t131.5 -101q87 0 129.5 100.5t42.5 317.5q0 216 -42.5 317.5t-129.5 101.5zM1255 915q-65 0 -108.5 -77t-50.5 -252h176q71 0 97 28.5t26 100.5q0 97 -39 148.5t-101 51.5zM1690 209q-126 -240 -430 -240
q-207 0 -338 144q-134 -144 -342 -144q-237 0 -379 146.5t-142 384.5q0 154 69 274t187.5 184t264.5 64q100 0 190.5 -40t157.5 -110q68 71 160.5 110.5t187.5 39.5q199 0 311.5 -121t112.5 -313q0 -68 -10 -109h-594q10 -155 86 -235t188 -80q144 0 250 110z" />
    <glyph glyph-name="Racute" unicode="&#x154;" horiz-adv-x="1398" 
d="M545 1503q82 80 227 217q49 46 82.5 64t69.5 18q48 0 80 -31.5t32 -72.5q0 -81 -116 -133q-60 -28 -169.5 -76t-148.5 -66zM225 635v76q0 340 -4 508l-153 16v111h665q240 0 371 -89.5t131 -250.5q0 -54 -19.5 -103t-60.5 -94t-114.5 -78t-172.5 -49q85 -11 144 -36.5
t95.5 -68.5t56.5 -95t32 -128l39 -227l156 -16v-111q-77 -18 -117.5 -23.5t-108.5 -5.5q-137 0 -210 47t-87 162l-37 238q-15 105 -59.5 152.5t-134.5 47.5h-74q0 -333 4 -491l160 -16v-111h-659v111l153 16q4 166 4 508zM649 1227h-82q-4 -170 -4 -494h78q141 0 203.5 70
t62.5 180q0 244 -258 244z" />
    <glyph glyph-name="racute" unicode="&#x155;" horiz-adv-x="952" 
d="M55 0v96l113 23q2 100 2 311v121q0 112 -6 235l-125 19v80l403 137l37 -23l19 -241q39 126 116.5 195t157.5 69q70 0 118 -39.5t60 -112.5q-3 -78 -42.5 -123t-102.5 -45q-86 0 -158 97l-12 16q-47 -44 -84.5 -110.5t-52.5 -135.5v-139q0 -203 2 -299l162 -35v-96h-607z
M465 1196q54 95 160 264q43 72 77.5 100.5t83.5 28.5q44 0 77.5 -30.5t33.5 -81.5q0 -44 -32 -84.5t-97 -87.5q-119 -90 -225 -172z" />
    <glyph glyph-name="uni0156" unicode="&#x156;" horiz-adv-x="1398" 
d="M225 635v76q0 340 -4 508l-153 16v111h665q240 0 371 -89.5t131 -250.5q0 -54 -19.5 -103t-60.5 -94t-114.5 -78t-172.5 -49q85 -11 144 -36.5t95.5 -68.5t56.5 -95t32 -128l39 -227l156 -16v-111q-77 -18 -117.5 -23.5t-108.5 -5.5q-137 0 -210 47t-87 162l-37 238
q-15 105 -59.5 152.5t-134.5 47.5h-74q0 -333 4 -491l160 -16v-111h-659v111l153 16q4 166 4 508zM649 1227h-82q-4 -170 -4 -494h78q141 0 203.5 70t62.5 180q0 244 -258 244zM895 -252q0 -99 -85 -174t-222 -119l-31 80q108 46 148 82q-113 58 -113 150q0 57 43 94t106 37
q69 0 133 -45q21 -62 21 -105z" />
    <glyph glyph-name="uni0157" unicode="&#x157;" horiz-adv-x="952" 
d="M55 0v96l113 23q2 100 2 311v121q0 112 -6 235l-125 19v80l403 137l37 -23l19 -241q39 126 116.5 195t157.5 69q70 0 118 -39.5t60 -112.5q-3 -78 -42.5 -123t-102.5 -45q-86 0 -158 97l-12 16q-47 -44 -84.5 -110.5t-52.5 -135.5v-139q0 -203 2 -299l162 -35v-96h-607z
M483 -258q0 -99 -85 -174t-222 -119l-31 80q108 46 148 82q-113 58 -113 149q0 57 43 94t107 37q69 0 133 -45q20 -59 20 -104z" />
    <glyph glyph-name="Rcaron" unicode="&#x158;" horiz-adv-x="1398" 
d="M225 635v76q0 340 -4 508l-153 16v111h665q240 0 371 -89.5t131 -250.5q0 -54 -19.5 -103t-60.5 -94t-114.5 -78t-172.5 -49q85 -11 144 -36.5t95.5 -68.5t56.5 -95t32 -128l39 -227l156 -16v-111q-77 -18 -117.5 -23.5t-108.5 -5.5q-137 0 -210 47t-87 162l-37 238
q-15 105 -59.5 152.5t-134.5 47.5h-74q0 -333 4 -491l160 -16v-111h-659v111l153 16q4 166 4 508zM649 1227h-82q-4 -170 -4 -494h78q141 0 203.5 70t62.5 180q0 244 -258 244zM399 1812l283 -184l283 184l69 -65l-264 -303h-176l-262 303z" />
    <glyph glyph-name="rcaron" unicode="&#x159;" horiz-adv-x="952" 
d="M55 0v96l113 23q2 100 2 311v121q0 112 -6 235l-125 19v80l403 137l37 -23l19 -241q39 126 116.5 195t157.5 69q70 0 118 -39.5t60 -112.5q-3 -78 -42.5 -123t-102.5 -45q-86 0 -158 97l-12 16q-47 -44 -84.5 -110.5t-52.5 -135.5v-139q0 -203 2 -299l162 -35v-96h-607z
M276 1571l252 -213l252 213l80 -66l-244 -348h-176l-243 348z" />
    <glyph glyph-name="Sacute" unicode="&#x15a;" horiz-adv-x="1107" 
d="M512 84q107 0 166 54.5t59 140.5q0 79 -40 124.5t-136 88.5l-88 38q-193 89 -286 193t-93 266q0 183 137.5 289t370.5 106q110 0 212 -27.5t175 -76.5l-16 -287h-189l-39 242q-73 27 -137 27q-90 0 -150.5 -52t-60.5 -135q0 -78 45 -126.5t142 -92.5l96 -43
q200 -91 284.5 -188.5t84.5 -249.5q0 -187 -139.5 -300.5t-395.5 -113.5q-121 0 -240.5 28t-203.5 81l12 303h190l41 -252q90 -37 199 -37zM461 1509q82 80 227 217q49 46 82.5 64t69.5 18q48 0 80 -31.5t32 -72.5q0 -81 -116 -133q-58 -27 -166.5 -74.5t-151.5 -66.5z" />
    <glyph glyph-name="sacute" unicode="&#x15b;" horiz-adv-x="931" 
d="M418 -31q-194 0 -357 94l7 250h163l35 -202q79 -29 154 -29q182 0 182 121q0 50 -37.5 83.5t-134.5 61.5l-111 33q-247 73 -247 305q0 146 113.5 241t314.5 95q155 0 323 -84l-14 -223h-164l-41 176q-44 16 -112 16q-71 0 -112.5 -29t-41.5 -85q0 -44 36 -75.5t136 -62.5
l100 -28q143 -42 208 -120.5t65 -197.5q0 -161 -123.5 -250.5t-341.5 -89.5zM406 1196q66 115 159 264q43 71 77.5 100t84.5 29q44 0 77.5 -30.5t33.5 -81.5q0 -44 -32 -84.5t-97 -87.5q-164 -124 -226 -172z" />
    <glyph glyph-name="Scircumflex" unicode="&#x15c;" horiz-adv-x="1107" 
d="M512 84q107 0 166 54.5t59 140.5q0 79 -40 124.5t-136 88.5l-88 38q-193 89 -286 193t-93 266q0 183 137.5 289t370.5 106q110 0 212 -27.5t175 -76.5l-16 -287h-189l-39 242q-73 27 -137 27q-90 0 -150.5 -52t-60.5 -135q0 -78 45 -126.5t142 -92.5l96 -43
q200 -91 284.5 -188.5t84.5 -249.5q0 -187 -139.5 -300.5t-395.5 -113.5q-121 0 -240.5 28t-203.5 81l12 303h190l41 -252q90 -37 199 -37zM651 1790l307 -309l-61 -74l-315 174l-316 -174l-61 74l307 309h139z" />
    <glyph glyph-name="scircumflex" unicode="&#x15d;" horiz-adv-x="931" 
d="M418 -31q-194 0 -357 94l7 250h163l35 -202q79 -29 154 -29q182 0 182 121q0 50 -37.5 83.5t-134.5 61.5l-111 33q-247 73 -247 305q0 146 113.5 241t314.5 95q155 0 323 -84l-14 -223h-164l-41 176q-44 16 -112 16q-71 0 -112.5 -29t-41.5 -85q0 -44 36 -75.5t136 -62.5
l100 -28q143 -42 208 -120.5t65 -197.5q0 -161 -123.5 -250.5t-341.5 -89.5zM768 1116l-274 211l-275 -211l-74 68l283 358h131l283 -358z" />
    <glyph glyph-name="uni015E" unicode="&#x15e;" horiz-adv-x="1107" 
d="M512 84q107 0 166 54.5t59 140.5q0 79 -40 124.5t-136 88.5l-88 38q-193 89 -286 193t-93 266q0 183 137.5 289t370.5 106q110 0 212 -27.5t175 -76.5l-16 -287h-189l-39 242q-73 27 -137 27q-90 0 -150.5 -52t-60.5 -135q0 -78 45 -126.5t142 -92.5l96 -43
q200 -91 284.5 -188.5t84.5 -249.5q0 -167 -112.5 -277t-320.5 -131l-8 -71q104 -20 154.5 -65.5t50.5 -109.5q0 -81 -71.5 -131.5t-204.5 -50.5q-81 0 -160 27l22 94q62 -16 109 -16q106 0 106 77q0 88 -129 97l23 143q-121 2 -238 29.5t-200 79.5l12 303h190l41 -252
q90 -37 199 -37z" />
    <glyph glyph-name="uni015F" unicode="&#x15f;" horiz-adv-x="931" 
d="M385 -182l23 151q-189 3 -347 94l7 250h163l35 -202q79 -29 154 -29q182 0 182 121q0 50 -37.5 83.5t-134.5 61.5l-111 33q-247 73 -247 305q0 146 113.5 241t314.5 95q155 0 323 -84l-14 -223h-164l-41 176q-44 16 -112 16q-71 0 -112.5 -29t-41.5 -85q0 -44 36 -75.5
t136 -62.5l100 -28q143 -42 208 -120.5t65 -197.5q0 -140 -97 -227.5t-270 -106.5l-8 -79q104 -20 154.5 -65.5t50.5 -109.5q0 -81 -71.5 -131.5t-205.5 -50.5q-81 0 -160 27l23 94q62 -16 109 -16q106 0 106 77q0 88 -129 97z" />
    <glyph glyph-name="Scaron" unicode="&#x160;" horiz-adv-x="1107" 
d="M512 84q107 0 166 54.5t59 140.5q0 79 -40 124.5t-136 88.5l-88 38q-193 89 -286 193t-93 266q0 183 137.5 289t370.5 106q110 0 212 -27.5t175 -76.5l-16 -287h-189l-39 242q-73 27 -137 27q-90 0 -150.5 -52t-60.5 -135q0 -78 45 -126.5t142 -92.5l96 -43
q200 -91 284.5 -188.5t84.5 -249.5q0 -187 -139.5 -300.5t-395.5 -113.5q-121 0 -240.5 28t-203.5 81l12 303h190l41 -252q90 -37 199 -37zM324 1827l282 -185l283 185l69 -66l-264 -303h-176l-262 303z" />
    <glyph glyph-name="scaron" unicode="&#x161;" horiz-adv-x="931" 
d="M418 -31q-194 0 -357 94l7 250h163l35 -202q79 -29 154 -29q182 0 182 121q0 50 -37.5 83.5t-134.5 61.5l-111 33q-247 73 -247 305q0 146 113.5 241t314.5 95q155 0 323 -84l-14 -223h-164l-41 176q-44 16 -112 16q-71 0 -112.5 -29t-41.5 -85q0 -44 36 -75.5t136 -62.5
l100 -28q143 -42 208 -120.5t65 -197.5q0 -161 -123.5 -250.5t-341.5 -89.5zM233 1571l252 -213l252 213l80 -66l-244 -348h-176l-243 348z" />
    <glyph glyph-name="uni0162" unicode="&#x162;" horiz-adv-x="1298" 
d="M569 -182l27 182h-297v111l174 18q4 166 4 506v76q0 346 -4 520h-223l-39 -266h-170l8 381h1202l6 -381h-170l-36 266h-226q-4 -170 -4 -520v-74q0 -340 4 -508l176 -18v-111h-296l-13 -104q104 -20 154.5 -65.5t50.5 -109.5q0 -81 -71.5 -131.5t-204.5 -50.5
q-81 0 -160 27l22 94q62 -16 109 -16q106 0 106 77q0 88 -129 97z" />
    <glyph glyph-name="uni0163" unicode="&#x163;" horiz-adv-x="733" 
d="M481 276q0 -69 28.5 -104t76.5 -35q53 0 110 45l52 -49q-82 -155 -281 -164l-8 -73q104 -20 154.5 -65.5t50.5 -109.5q0 -81 -72 -131.5t-205 -50.5q-81 0 -160 27l23 94q62 -16 108 -16q107 0 107 77q0 88 -129 97l24 159q-206 36 -206 277q0 35 1 99.5t1 105.5v391
h-133v121l151 20l102 287h209l-4 -289h215v-139h-215v-574z" />
    <glyph glyph-name="Tcaron" unicode="&#x164;" horiz-adv-x="1298" 
d="M477 635v76q0 346 -4 520h-223l-39 -266h-170l8 381h1202l6 -381h-170l-36 266h-226q-4 -170 -4 -520v-74q0 -340 4 -508l176 -18v-111h-702v111l174 18q4 166 4 506zM367 1812l282 -184l283 184l69 -65l-264 -303h-176l-262 303z" />
    <glyph glyph-name="tcaron" unicode="&#x165;" horiz-adv-x="733" 
d="M729 1524q55 0 76.5 -26t21.5 -73q0 -80 -63 -223l-59 -127h-99l8 414q57 35 115 35zM481 276q0 -69 28.5 -104t76.5 -35q53 0 110 45l52 -49q-87 -164 -302 -164q-292 0 -292 285q0 35 1 99.5t1 105.5v391h-133v121l151 20l102 287h209l-4 -289h215v-139h-215v-574z" />
    <glyph glyph-name="Utilde" unicode="&#x168;" horiz-adv-x="1497" 
d="M555 573q0 -229 71.5 -327.5t221.5 -98.5q293 0 293 433v639l-187 16v111h490v-111l-170 -14v-641q0 -619 -539 -619q-117 0 -210 30.5t-165 93.5t-110.5 170.5t-38.5 252.5v223q0 326 -4 490l-148 14v111h668v-111l-170 -16q-2 -162 -2 -488v-158zM459 1475
q17 134 79.5 209t153.5 75q71 0 156 -55q3 -2 17 -12.5t19.5 -14t18 -11.5t20.5 -11.5t19.5 -8t21.5 -6.5t21 -2q87 0 131 123l86 -35q-17 -134 -78.5 -210t-150.5 -76q-80 0 -162 55q-4 3 -20 14.5t-22.5 16t-21 13t-24 12t-23 7t-26.5 3.5q-85 0 -129 -121z" />
    <glyph glyph-name="utilde" unicode="&#x169;" horiz-adv-x="1243" 
d="M1202 -2l-420 -21l-12 170q-136 -178 -332 -178q-293 0 -288 369l8 500l-119 26v86l418 60l32 -23l-10 -289v-362q0 -91 28 -129.5t83 -38.5q81 0 176 92l8 580l-112 24v80l407 66l33 -23l-6 -289v-581l106 -23v-96zM270 1204q17 135 78.5 210t151.5 75q66 0 151 -55
q63 -47 93 -57q21 -7 40 -7q84 0 127 121l84 -35q-17 -134 -77.5 -210.5t-147.5 -76.5q-67 0 -156 56q-5 3 -20 14.5t-22 16t-20.5 12.5t-23.5 12t-23 7t-26 3q-82 0 -125 -121z" />
    <glyph glyph-name="Umacron" unicode="&#x16a;" horiz-adv-x="1497" 
d="M555 573q0 -229 71.5 -327.5t221.5 -98.5q293 0 293 433v639l-187 16v111h490v-111l-170 -14v-641q0 -619 -539 -619q-117 0 -210 30.5t-165 93.5t-110.5 170.5t-38.5 252.5v223q0 326 -4 490l-148 14v111h668v-111l-170 -16q-2 -162 -2 -488v-158zM500 1493v182h659
v-182h-659z" />
    <glyph glyph-name="umacron" unicode="&#x16b;" horiz-adv-x="1243" 
d="M1202 -2l-420 -21l-12 170q-136 -178 -332 -178q-293 0 -288 369l8 500l-119 26v86l418 60l32 -23l-10 -289v-362q0 -91 28 -129.5t83 -38.5q81 0 176 92l8 580l-112 24v80l407 66l33 -23l-6 -289v-581l106 -23v-96zM309 1202v182h652v-182h-652z" />
    <glyph glyph-name="Ubreve" unicode="&#x16c;" horiz-adv-x="1497" 
d="M555 573q0 -229 71.5 -327.5t221.5 -98.5q293 0 293 433v639l-187 16v111h490v-111l-170 -14v-641q0 -619 -539 -619q-117 0 -210 30.5t-165 93.5t-110.5 170.5t-38.5 252.5v223q0 326 -4 490l-148 14v111h668v-111l-170 -16q-2 -162 -2 -488v-158zM496 1724l94 37
q72 -147 244 -147q168 0 243 147l94 -37q-24 -122 -107 -199t-230 -77t-230.5 77.5t-107.5 198.5z" />
    <glyph glyph-name="ubreve" unicode="&#x16d;" horiz-adv-x="1243" 
d="M1202 -2l-420 -21l-12 170q-136 -178 -332 -178q-293 0 -288 369l8 500l-119 26v86l418 60l32 -23l-10 -289v-362q0 -91 28 -129.5t83 -38.5q81 0 176 92l8 580l-112 24v80l407 66l33 -23l-6 -289v-581l106 -23v-96zM305 1479l101 30q77 -180 231 -180q84 0 141.5 49.5
t89.5 130.5l101 -30q-4 -44 -16.5 -86.5t-38 -86t-62 -75.5t-92 -52t-123.5 -20t-123.5 20t-92 52t-62 75.5t-38 86t-16.5 86.5z" />
    <glyph glyph-name="Uring" unicode="&#x16e;" horiz-adv-x="1497" 
d="M555 573q0 -229 71.5 -327.5t221.5 -98.5q293 0 293 433v639l-187 16v111h490v-111l-170 -14v-641q0 -619 -539 -619q-117 0 -210 30.5t-165 93.5t-110.5 170.5t-38.5 252.5v223q0 326 -4 490l-148 14v111h668v-111l-170 -16q-2 -162 -2 -488v-158zM840 1530
q47 0 75.5 30t28.5 78q0 46 -28.5 76.5t-75.5 30.5t-76 -30.5t-29 -76.5q0 -48 29 -78t76 -30zM840 1436q-90 0 -150.5 55t-60.5 147q0 90 60.5 146.5t150.5 56.5t150.5 -55t60.5 -148t-60 -147.5t-151 -54.5z" />
    <glyph glyph-name="uring" unicode="&#x16f;" horiz-adv-x="1243" 
d="M1202 -2l-420 -21l-12 170q-136 -178 -332 -178q-293 0 -288 369l8 500l-119 26v86l418 60l32 -23l-10 -289v-362q0 -91 28 -129.5t83 -38.5q81 0 176 92l8 580l-112 24v80l407 66l33 -23l-6 -289v-581l106 -23v-96zM633 1237q55 0 88 40t33 91q0 53 -32.5 91t-88.5 38
t-88.5 -38t-32.5 -91q0 -51 33 -91t88 -40zM633 1133q-106 0 -177 64.5t-71 170.5q0 105 71.5 169.5t176.5 64.5q107 0 177.5 -62.5t70.5 -171.5t-70.5 -172t-177.5 -63z" />
    <glyph glyph-name="Uhungarumlaut" unicode="&#x170;" horiz-adv-x="1497" 
d="M555 573q0 -229 71.5 -327.5t221.5 -98.5q293 0 293 433v639l-187 16v111h490v-111l-170 -14v-641q0 -619 -539 -619q-117 0 -210 30.5t-165 93.5t-110.5 170.5t-38.5 252.5v223q0 326 -4 490l-148 14v111h668v-111l-170 -16q-2 -162 -2 -488v-158zM598 1470l113 271
q42 96 120 96q39 0 68 -22.5t29 -59.5q0 -44 -45 -98l-203 -234zM924 1470l114 271q39 96 119 96q39 0 67.5 -22.5t28.5 -59.5q0 -48 -45 -98l-202 -234z" />
    <glyph glyph-name="uhungarumlaut" unicode="&#x171;" horiz-adv-x="1243" 
d="M1202 -2l-420 -21l-12 170q-136 -178 -332 -178q-293 0 -288 369l8 500l-119 26v86l418 60l32 -23l-10 -289v-362q0 -91 28 -129.5t83 -38.5q81 0 176 92l8 580l-112 24v80l407 66l33 -23l-6 -289v-581l106 -23v-96zM713 1180l100 288q48 142 145 142q45 0 71 -25.5
t26 -66.5q0 -61 -72 -148l-186 -240zM414 1174l92 290q25 81 62 114.5t87 33.5q41 0 67 -25.5t26 -70.5q0 -53 -68 -144l-182 -244z" />
    <glyph glyph-name="Uogonek" unicode="&#x172;" horiz-adv-x="1497" 
d="M954 1235v111h490v-111l-170 -14v-641q0 -418 -256 -557q-119 -66 -119 -181q0 -63 39.5 -99t105.5 -36q53 0 111 21l29 -88q-46 -49 -117.5 -75t-151.5 -26q-107 0 -168 56t-61 143q0 138 139 227q-54 -4 -86 -4q-119 0 -213 30t-165.5 94t-110.5 171t-39 252v223
q0 326 -4 490l-148 14v111h668v-111l-170 -16q-2 -162 -2 -488v-158q0 -229 71 -327.5t220 -98.5q295 0 295 433v639z" />
    <glyph glyph-name="uogonek" unicode="&#x173;" horiz-adv-x="1243" 
d="M1202 -2l-158 -8q-79 -59 -79 -148q0 -62 40 -98.5t105 -36.5q57 0 111 21l28 -88q-96 -101 -270 -101q-105 0 -165 56t-60 143q0 152 180 248l-152 -9l-12 170q-136 -178 -332 -178q-293 0 -288 369l8 500l-119 26v86l418 60l32 -23l-10 -289v-362q0 -91 28 -129.5
t83 -38.5q81 0 176 92l8 580l-112 24v80l407 66l33 -23l-6 -289v-581l106 -23v-96z" />
    <glyph glyph-name="Wcircumflex" unicode="&#x174;" horiz-adv-x="2009" 
d="M1282 -4l-289 934l-284 -934h-201l-367 1227l-125 12v111h635v-111l-149 -16l209 -824l245 822l-149 18v111h614v-111l-178 -23l238 -831l235 831l-145 23v111h432v-111l-160 -27l-360 -1212h-201zM1165 1790l308 -309l-62 -74l-315 174l-316 -174l-61 74l307 309h139z
" />
    <glyph glyph-name="wcircumflex" unicode="&#x175;" horiz-adv-x="1615" 
d="M1231 899v90h373v-90l-115 -18l-313 -885h-154l-236 659l-233 -659h-154l-323 889l-90 14v90h538v-90l-118 -16l161 -525l178 523l-120 18v90h501v-90l-112 -18l168 -510l166 510zM1157 1116l-274 211l-275 -211l-73 68l282 358h131l283 -358z" />
    <glyph glyph-name="Ycircumflex" unicode="&#x176;" horiz-adv-x="1277" 
d="M850 1235v111h424v-111l-150 -25l-309 -628q0 -330 2 -453l178 -18v-111h-702v111l176 18q2 111 2 399l-340 695l-115 12v111h660v-111l-154 -18l234 -519l235 514zM811 1790l307 -309l-61 -74l-316 174l-315 -174l-61 74l307 309h139z" />
    <glyph glyph-name="ycircumflex" unicode="&#x177;" horiz-adv-x="1093" 
d="M213 -485q-82 0 -144.5 44.5t-66.5 108.5q11 65 58 99t110 34q112 0 176 -96l14 -20q90 97 140 235v2l-408 963l-96 16v88h582v-88l-138 -24l201 -555l195 555l-136 24v88h385v-88l-116 -20l-373 -965q-32 -83 -60.5 -143t-63 -111t-72 -82t-84.5 -48t-103 -17zM915 1116
l-274 211l-274 -211l-74 68l282 358h132l282 -358z" />
    <glyph glyph-name="Ydieresis" unicode="&#x178;" horiz-adv-x="1277" 
d="M850 1235v111h424v-111l-150 -25l-309 -628q0 -330 2 -453l178 -18v-111h-702v111l176 18q2 111 2 399l-340 695l-115 12v111h660v-111l-154 -18l234 -519l235 514zM496 1460q-61 0 -105.5 39t-44.5 103t44.5 102.5t105.5 38.5q64 0 107.5 -38.5t43.5 -102.5t-43.5 -103
t-107.5 -39zM1006 1460q-61 0 -105.5 39t-44.5 103t44.5 102.5t105.5 38.5q64 0 107.5 -38.5t43.5 -102.5t-43.5 -103t-107.5 -39z" />
    <glyph glyph-name="Zacute" unicode="&#x179;" horiz-adv-x="1153" 
d="M223 965h-162l17 381h1014v-95l-660 -1134h463l53 264h164l-16 -381h-1055v94l657 1135h-422zM512 1503q82 80 227 217q49 46 82.5 64t69.5 18q48 0 80.5 -31.5t32.5 -72.5q0 -81 -117 -133q-60 -28 -169.5 -76t-148.5 -66z" />
    <glyph glyph-name="zacute" unicode="&#x17a;" horiz-adv-x="950" 
d="M66 989h835v-78l-495 -817h290l60 248h166l-21 -342h-864v80l512 817h-279l-55 -227l-166 8zM432 1196q54 95 160 264q43 71 77.5 100t84.5 29q44 0 77 -30.5t33 -81.5q0 -44 -32 -84.5t-97 -87.5q-119 -90 -225 -172z" />
    <glyph glyph-name="Zdotaccent" unicode="&#x17b;" horiz-adv-x="1153" 
d="M223 965h-162l17 381h1014v-95l-660 -1134h463l53 264h164l-16 -381h-1055v94l657 1135h-422zM635 1452q-73 0 -123.5 46.5t-50.5 117.5q0 70 50.5 116t123.5 46t123.5 -46t50.5 -116q0 -71 -50.5 -117.5t-123.5 -46.5z" />
    <glyph glyph-name="zdotaccent" unicode="&#x17c;" horiz-adv-x="950" 
d="M66 989h835v-78l-495 -817h290l60 248h166l-21 -342h-864v80l512 817h-279l-55 -227l-166 8zM524 1167q-73 0 -123.5 46t-50.5 116q0 71 50.5 117.5t123.5 46.5t123.5 -46.5t50.5 -117.5q0 -70 -50.5 -116t-123.5 -46z" />
    <glyph glyph-name="Zcaron" unicode="&#x17d;" horiz-adv-x="1153" 
d="M223 965h-162l17 381h1014v-95l-660 -1134h463l53 264h164l-16 -381h-1055v94l657 1135h-422zM344 1812l283 -184l282 184l70 -65l-264 -303h-176l-263 303z" />
    <glyph glyph-name="zcaron" unicode="&#x17e;" horiz-adv-x="950" 
d="M66 989h835v-78l-495 -817h290l60 248h166l-21 -342h-864v80l512 817h-279l-55 -227l-166 8zM289 1571l252 -213l252 213l79 -66l-243 -348h-176l-244 348z" />
    <glyph glyph-name="longs" unicode="&#x17f;" horiz-adv-x="735" 
d="M170 430v488q0 90 15 164.5t42.5 128.5t55 90t63.5 71q143 135 342 135q93 0 160 -37.5t86 -115.5q-2 -60 -41 -97.5t-107 -37.5q-104 0 -180 151l-18 29q-23 -21 -41 -56q-23 -47 -34.5 -120.5t-13 -135t-1.5 -196.5v-47v-414q0 -201 2 -301l159 -33v-96h-604v96l111 23
q4 208 4 311z" />
    <glyph glyph-name="uni018F" unicode="&#x18f;" horiz-adv-x="1357" 
d="M70 567q0 117 12 181h846q-24 491 -348 491q-99 0 -189 -38.5t-158 -106.5l-63 82q83 101 206 154.5t259 53.5q144 0 264.5 -48.5t207 -137.5t135 -222.5t48.5 -297.5q0 -173 -50.5 -312t-136.5 -226t-194.5 -133t-230.5 -46q-148 0 -264.5 45.5t-191 126.5t-113.5 191.5
t-39 242.5zM684 80q115 0 178.5 136t67.5 411h-494q-12 -79 -12 -168q0 -186 73 -282.5t187 -96.5z" />
    <glyph glyph-name="uni0192" unicode="&#x192;" horiz-adv-x="1110" 
d="M227 694v117h207q27 265 139 389q107 123 277 123q107 0 175 -43t91 -115q-2 -56 -34.5 -92.5t-82.5 -36.5q-47 0 -80 23.5t-57 81.5l-33 88q-32 -25 -53 -72q-26 -51 -36.5 -123t-20.5 -223h225v-117h-233l-17 -225q-18 -231 -52 -358.5t-103 -202.5
q-105 -121 -275 -121q-109 0 -177 42t-91 114q2 57 34 93t83 36q49 0 82 -23t55 -82l33 -88q31 27 53 72q7 15 13.5 31t11.5 38t8.5 38t7.5 47t6.5 49t6 60t5 63.5t5.5 76t6 82.5l18 258h-197z" />
    <glyph glyph-name="Ohorn" unicode="&#x1a0;" horiz-adv-x="1437" 
d="M432 674q0 -131 16.5 -237t50 -187t89.5 -125.5t131 -44.5q76 0 132 44.5t89.5 126t49.5 187t16 236.5t-16 236t-49.5 186t-89.5 125.5t-132 44.5q-99 0 -165 -79t-94 -208t-28 -305zM719 1384q230 0 401 -133q82 37 82 103q0 28 -33.5 82t-33.5 96q0 41 33 72.5t83 31.5
q58 0 95 -32q22 -50 22 -127q0 -94 -48.5 -170.5t-127.5 -120.5q176 -198 176 -512q0 -172 -53.5 -310t-144.5 -224.5t-206.5 -132.5t-244.5 -46t-244.5 45t-206.5 131t-144.5 224.5t-53.5 312.5q0 171 54 308.5t145 224t206.5 132t243.5 45.5z" />
    <glyph glyph-name="ohorn" unicode="&#x1a1;" horiz-adv-x="1157" 
d="M580 76q87 0 129.5 101t42.5 317t-42.5 317.5t-129.5 101.5q-88 0 -131 -101t-43 -318q0 -216 42.5 -317t131.5 -101zM580 -31q-237 0 -379 146.5t-142 384.5q0 231 149 376.5t372 145.5q203 0 346 -121q65 40 65 96q0 28 -33.5 82.5t-33.5 96.5q0 41 33 72.5t83 31.5
q57 0 95 -33q22 -49 22 -127q0 -91 -45 -164.5t-121 -121.5q109 -138 109 -334q0 -240 -141.5 -385.5t-378.5 -145.5z" />
    <glyph glyph-name="Uhorn" unicode="&#x1af;" horiz-adv-x="1497" 
d="M555 573q0 -229 71.5 -327.5t221.5 -98.5q293 0 293 433v639l-187 16v111h238q106 0 152.5 14.5t46.5 46.5q0 19 -17 43t-34 55t-17 66q0 41 33.5 72.5t83.5 31.5q56 0 94 -35q22 -48 22 -110q0 -269 -282 -305v-645q0 -619 -539 -619q-117 0 -210 30.5t-165 93.5
t-110.5 170.5t-38.5 252.5v223q0 326 -4 490l-148 14v111h668v-111l-170 -16q-2 -162 -2 -488v-158z" />
    <glyph glyph-name="uhorn" unicode="&#x1b0;" horiz-adv-x="1243" 
d="M479 698v-362q0 -91 28 -129.5t83 -38.5q81 0 176 92l8 580l-112 24v80l407 66l33 -23l-2 -108q123 37 123 118q0 28 -34 82.5t-34 96.5q0 41 33.5 72.5t83.5 31.5q56 0 94 -33q23 -52 23 -127q0 -125 -83.5 -217t-207.5 -119l-2 -86v-581l106 -23v-96l-420 -21l-12 170
q-136 -178 -332 -178q-293 0 -288 369l8 500l-119 26v86l418 60l32 -23z" />
    <glyph glyph-name="uni01CD" unicode="&#x1cd;" horiz-adv-x="1382" 
d="M594 1032l-170 -522h336zM18 0v111l166 24l416 1213h211l420 -1227l125 -15v-106h-633v106l158 21l-84 264h-412l-82 -256l156 -24v-111h-441zM416 1812l282 -184l283 184l70 -65l-265 -303h-176l-262 303z" />
    <glyph glyph-name="uni01CE" unicode="&#x1ce;" horiz-adv-x="1087" 
d="M850 -29q-176 0 -225 148q-51 -54 -85.5 -82.5t-87 -48t-120.5 -19.5q-122 0 -195.5 68.5t-73.5 193.5q0 57 18 102t61.5 87.5t122 79.5t194.5 71q62 18 155 41v68q0 137 -33.5 186t-131.5 49q-36 0 -56 -2l-10 -90q-3 -96 -44.5 -143t-105.5 -47q-113 0 -137 102
q8 131 131 209t340 78q196 0 281.5 -90.5t85.5 -296.5v-459q0 -59 45 -59q18 0 31 9.5t30 35.5l56 -37q-36 -82 -94.5 -118t-151.5 -36zM293 1571l252 -213l252 213l80 -66l-244 -348h-176l-244 348zM367 285q0 -74 33.5 -112t88.5 -38q28 0 55 12t70 43v334
q-45 -15 -96 -35q-151 -64 -151 -204z" />
    <glyph glyph-name="uni01CF" unicode="&#x1cf;" horiz-adv-x="794" 
d="M225 635v76q0 340 -4 508l-153 16v111h659v-111l-154 -16q-4 -166 -4 -508v-74q0 -342 4 -510l154 -16v-111h-659v111l153 16q4 166 4 508zM115 1812l282 -184l283 184l70 -65l-265 -303h-176l-262 303z" />
    <glyph glyph-name="uni01D0" unicode="&#x1d0;" horiz-adv-x="647" 
d="M61 0v96l111 25q2 98 2 309v98q0 135 -6 258l-125 19v80l428 137l35 -23l-6 -297v-272q0 -213 2 -313l102 -21v-96h-543zM86 1571l252 -213l252 213l80 -66l-244 -348h-176l-244 348z" />
    <glyph glyph-name="uni01D1" unicode="&#x1d1;" horiz-adv-x="1437" 
d="M432 674q0 -131 16.5 -237t50 -187t89.5 -125.5t131 -44.5q76 0 132 44.5t89.5 126t49.5 187t16 236.5t-16 236t-49.5 186t-89.5 125.5t-132 44.5q-99 0 -165 -79t-94 -208t-28 -305zM719 1384q102 0 196.5 -27.5t177 -85.5t143.5 -140.5t96.5 -200t35.5 -256.5
q0 -172 -53.5 -310t-144.5 -224.5t-206.5 -132.5t-244.5 -46t-244.5 45t-206.5 131t-144.5 224.5t-53.5 312.5q0 171 54 308.5t145 224t206.5 132t243.5 45.5zM436 1812l283 -184l282 184l70 -65l-264 -303h-176l-262 303z" />
    <glyph glyph-name="uni01D2" unicode="&#x1d2;" horiz-adv-x="1157" 
d="M580 76q87 0 129.5 101t42.5 317t-42.5 317.5t-129.5 101.5q-88 0 -131 -101t-43 -318q0 -216 42.5 -317t131.5 -101zM580 -31q-237 0 -379 146.5t-142 384.5q0 231 149 376.5t372 145.5q146 0 263.5 -63t187 -183t69.5 -276q0 -240 -141.5 -385.5t-378.5 -145.5z
M328 1571l252 -213l251 213l80 -66l-243 -348h-176l-244 348z" />
    <glyph glyph-name="uni01D3" unicode="&#x1d3;" horiz-adv-x="1497" 
d="M555 573q0 -229 71.5 -327.5t221.5 -98.5q293 0 293 433v639l-187 16v111h490v-111l-170 -14v-641q0 -619 -539 -619q-117 0 -210 30.5t-165 93.5t-110.5 170.5t-38.5 252.5v223q0 326 -4 490l-148 14v111h668v-111l-170 -16q-2 -162 -2 -488v-158zM569 1812l283 -184
l283 184l69 -65l-264 -303h-176l-262 303z" />
    <glyph glyph-name="uni01D4" unicode="&#x1d4;" horiz-adv-x="1243" 
d="M1202 -2l-420 -21l-12 170q-136 -178 -332 -178q-293 0 -288 369l8 500l-119 26v86l418 60l32 -23l-10 -289v-362q0 -91 28 -129.5t83 -38.5q81 0 176 92l8 580l-112 24v80l407 66l33 -23l-6 -289v-581l106 -23v-96zM375 1571l252 -213l252 213l79 -66l-243 -348h-176
l-244 348z" />
    <glyph glyph-name="uni01D5" unicode="&#x1d5;" horiz-adv-x="1497" 
d="M555 573q0 -229 71.5 -327.5t221.5 -98.5q293 0 293 433v639l-187 16v111h490v-111l-170 -14v-641q0 -619 -539 -619q-117 0 -210 30.5t-165 93.5t-110.5 170.5t-38.5 252.5v223q0 326 -4 490l-148 14v111h668v-111l-170 -16q-2 -162 -2 -488v-158zM580 1460
q-61 0 -105.5 39t-44.5 103t44.5 102.5t105.5 38.5q64 0 107.5 -38.5t43.5 -102.5t-43.5 -103t-107.5 -39zM1090 1460q-61 0 -105.5 39t-44.5 103t44.5 102.5t105.5 38.5q64 0 107.5 -38.5t43.5 -102.5t-43.5 -103t-107.5 -39zM506 1823v182h659v-182h-659z" />
    <glyph glyph-name="uni01D6" unicode="&#x1d6;" horiz-adv-x="1243" 
d="M1202 -2l-420 -21l-12 170q-136 -178 -332 -178q-293 0 -288 369l8 500l-119 26v86l418 60l32 -23l-10 -289v-362q0 -91 28 -129.5t83 -38.5q81 0 176 92l8 580l-112 24v80l407 66l33 -23l-6 -289v-581l106 -23v-96zM391 1137q-65 0 -111.5 40.5t-46.5 108.5
q0 67 47 108.5t111 41.5q66 0 112 -41.5t46 -108.5q0 -68 -45.5 -108.5t-112.5 -40.5zM883 1137q-65 0 -111.5 40.5t-46.5 108.5q0 67 47 108.5t111 41.5q65 0 111 -41.5t46 -108.5q0 -68 -45.5 -108.5t-111.5 -40.5zM311 1518v182h652v-182h-652z" />
    <glyph glyph-name="uni01D7" unicode="&#x1d7;" horiz-adv-x="1497" 
d="M555 573q0 -229 71.5 -327.5t221.5 -98.5q293 0 293 433v639l-187 16v111h490v-111l-170 -14v-641q0 -619 -539 -619q-117 0 -210 30.5t-165 93.5t-110.5 170.5t-38.5 252.5v223q0 326 -4 490l-148 14v111h668v-111l-170 -16q-2 -162 -2 -488v-158zM430 1602
q0 64 44.5 102.5t105.5 38.5q64 0 107.5 -38.5t43.5 -102.5t-43.5 -103t-107.5 -39q-61 0 -105.5 39t-44.5 103zM940 1602q0 64 44.5 102.5t105.5 38.5q64 0 107.5 -38.5t43.5 -102.5t-43.5 -103t-107.5 -39q-61 0 -105.5 39t-44.5 103zM807 1726l-59 80l147 183
q61 75 129 75q44 0 73 -31.5t29 -70.5q0 -71 -102 -123z" />
    <glyph glyph-name="uni01D8" unicode="&#x1d8;" horiz-adv-x="1243" 
d="M1202 -2l-420 -21l-12 170q-136 -178 -332 -178q-293 0 -288 369l8 500l-119 26v86l418 60l32 -23l-10 -289v-362q0 -91 28 -129.5t83 -38.5q81 0 176 92l8 580l-112 24v80l407 66l33 -23l-6 -289v-581l106 -23v-96zM252 1270q0 64 44 102.5t107 38.5q62 0 106 -38.5
t44 -102.5q0 -65 -43.5 -104.5t-106.5 -39.5t-107 39.5t-44 104.5zM721 1270q0 64 44 102.5t105 38.5q64 0 108 -38.5t44 -102.5q0 -65 -44 -104.5t-108 -39.5q-61 0 -105 39.5t-44 104.5zM559 1464l64 140q44 109 84 150.5t90 41.5q40 0 71 -26t31 -72q0 -42 -32 -81.5
t-128 -123.5l-102 -92z" />
    <glyph glyph-name="uni01D9" unicode="&#x1d9;" horiz-adv-x="1497" 
d="M555 573q0 -229 71.5 -327.5t221.5 -98.5q293 0 293 433v639l-187 16v111h490v-111l-170 -14v-641q0 -619 -539 -619q-117 0 -210 30.5t-165 93.5t-110.5 170.5t-38.5 252.5v223q0 326 -4 490l-148 14v111h668v-111l-170 -16q-2 -162 -2 -488v-158zM580 1460
q-61 0 -105.5 39t-44.5 103t44.5 102.5t105.5 38.5q64 0 107.5 -38.5t43.5 -102.5t-43.5 -103t-107.5 -39zM1090 1460q-61 0 -105.5 39t-44.5 103t44.5 102.5t105.5 38.5q64 0 107.5 -38.5t43.5 -102.5t-43.5 -103t-107.5 -39zM553 2101l283 -184l282 184l70 -65l-264 -303
h-176l-263 303z" />
    <glyph glyph-name="uni01DA" unicode="&#x1da;" horiz-adv-x="1243" 
d="M1202 -2l-420 -21l-12 170q-136 -178 -332 -178q-293 0 -288 369l8 500l-119 26v86l418 60l32 -23l-10 -289v-362q0 -91 28 -129.5t83 -38.5q81 0 176 92l8 580l-112 24v80l407 66l33 -23l-6 -289v-581l106 -23v-96zM391 1137q-65 0 -111.5 40.5t-46.5 108.5
q0 67 47 108.5t111 41.5q66 0 112 -41.5t46 -108.5q0 -68 -45.5 -108.5t-112.5 -40.5zM883 1137q-65 0 -111.5 40.5t-46.5 108.5q0 67 47 108.5t111 41.5q65 0 111 -41.5t46 -108.5q0 -68 -45.5 -108.5t-111.5 -40.5zM354 1810l283 -184l283 184l69 -65l-264 -303h-176
l-262 303z" />
    <glyph glyph-name="uni01DB" unicode="&#x1db;" horiz-adv-x="1497" 
d="M555 573q0 -229 71.5 -327.5t221.5 -98.5q293 0 293 433v639l-187 16v111h490v-111l-170 -14v-641q0 -619 -539 -619q-117 0 -210 30.5t-165 93.5t-110.5 170.5t-38.5 252.5v223q0 326 -4 490l-148 14v111h668v-111l-170 -16q-2 -162 -2 -488v-158zM430 1602
q0 64 44 102.5t106 38.5q63 0 107 -38.5t44 -102.5t-44.5 -103t-106.5 -39t-106 39t-44 103zM940 1602q0 64 44 102.5t106 38.5q63 0 107 -38.5t44 -102.5t-44.5 -103t-106.5 -39t-106 39t-44 103zM649 1839q-104 53 -104 121q0 40 29.5 72t72.5 32q67 0 131 -75l148 -183
l-60 -80z" />
    <glyph glyph-name="uni01DC" unicode="&#x1dc;" horiz-adv-x="1243" 
d="M1202 -2l-420 -21l-12 170q-136 -178 -332 -178q-293 0 -288 369l8 500l-119 26v86l418 60l32 -23l-10 -289v-362q0 -91 28 -129.5t83 -38.5q81 0 176 92l8 580l-112 24v80l407 66l33 -23l-6 -289v-581l106 -23v-96zM252 1270q0 64 43.5 102.5t107.5 38.5
q61 0 105.5 -38.5t44.5 -102.5q0 -65 -44.5 -104.5t-105.5 -39.5q-64 0 -107.5 39.5t-43.5 104.5zM721 1270q0 64 43.5 102.5t105.5 38.5q63 0 107.5 -38.5t44.5 -102.5q0 -65 -44.5 -104.5t-107.5 -39.5q-62 0 -105.5 39.5t-43.5 104.5zM639 1401l-104 92
q-95 85 -126.5 124t-31.5 81q0 47 30 72.5t72 25.5q49 0 90 -42t84 -150l62 -138z" />
    <glyph glyph-name="Gcaron" unicode="&#x1e6;" horiz-adv-x="1382" 
d="M1241 168v-86q-211 -121 -463 -121q-320 0 -514 192t-194 523q0 326 194 517t539 191q217 0 395 -94l8 -319h-157l-60 266q-76 31 -147 31q-85 0 -157.5 -36t-130 -106.5t-90 -186t-32.5 -263.5q0 -149 31.5 -265t87.5 -187.5t128.5 -108.5t158.5 -37q44 0 77 8v88
q0 116 -4 354l-184 25v111h625v-111l-107 -14q-4 -246 -4 -371zM508 1812l283 -184l282 184l70 -65l-264 -303h-177l-262 303z" />
    <glyph glyph-name="gcaron" unicode="&#x1e7;" horiz-adv-x="1112" 
d="M506 924q-68 0 -103.5 -61t-35.5 -171q0 -233 135 -233q71 0 107 62t36 173q0 108 -36 169t-103 61zM76 690q0 149 109 240.5t319 91.5q213 0 325 -94l230 98l33 -20v-158h-195q37 -67 37 -158q0 -145 -110 -236.5t-320 -91.5q-104 0 -187 25q-24 -43 -24 -94
q0 -78 119 -78h239q420 0 420 -299q0 -163 -158.5 -272t-441.5 -109q-123 0 -211.5 19.5t-137 54t-70 75.5t-21.5 91q0 133 170 211q-119 50 -119 164q0 130 158 266q-81 42 -122.5 113t-41.5 161zM504 -344q149 0 229 44t80 114q0 50 -36 83t-113 33h-215q-109 0 -187 19
q-33 -56 -33 -119q0 -90 67 -132t208 -42zM262 1571l252 -213l252 213l80 -66l-244 -348h-176l-244 348z" />
    <glyph glyph-name="uni01F8" unicode="&#x1f8;" horiz-adv-x="1490" 
d="M893 1235v111h539v-111l-175 -27v-1212h-172l-720 999v-858l233 -26v-111h-541v111l174 24v1047l-28 39l-142 14v111h463l602 -828v690zM883 1503l-58 -80q-45 20 -151.5 66.5t-163.5 71.5q-119 55 -119 137q0 41 32.5 72.5t80.5 31.5q36 0 69 -17.5t82 -64.5
q198 -187 228 -217z" />
    <glyph glyph-name="uni01F9" unicode="&#x1f9;" horiz-adv-x="1261" 
d="M819 1022q136 0 215.5 -90t79.5 -262v-240q0 -213 2 -313l103 -21v-96h-541v96l106 23q2 100 2 311v215q0 97 -26 137.5t-86 40.5q-83 0 -176 -75v-318q0 -213 2 -313l96 -21v-96h-539v96l111 25q2 98 2 309v119q0 114 -6 237l-125 19v80l403 137l37 -23l13 -147
q80 92 157.5 131t169.5 39zM729 1196l-78 -63q-106 82 -227 172q-66 50 -97.5 89.5t-31.5 82.5q0 51 34.5 81.5t78.5 30.5q49 0 82.5 -28t76.5 -99q156 -255 162 -266z" />
    <glyph glyph-name="uni0218" unicode="&#x218;" horiz-adv-x="1107" 
d="M512 84q107 0 166 54.5t59 140.5q0 79 -40 124.5t-136 88.5l-88 38q-193 89 -286 193t-93 266q0 183 137.5 289t370.5 106q110 0 212 -27.5t175 -76.5l-16 -287h-189l-39 242q-73 27 -137 27q-90 0 -150.5 -52t-60.5 -135q0 -78 45 -126.5t142 -92.5l96 -43
q200 -91 284.5 -188.5t84.5 -249.5q0 -187 -139.5 -300.5t-395.5 -113.5q-121 0 -240.5 28t-203.5 81l12 303h190l41 -252q90 -37 199 -37zM705 -258q0 -99 -85 -174t-223 -119l-30 80q57 24 88.5 41t58.5 41q-113 58 -113 149q0 57 43 94t107 37q69 0 133 -45
q21 -62 21 -104z" />
    <glyph glyph-name="uni0219" unicode="&#x219;" horiz-adv-x="931" 
d="M418 -31q-194 0 -357 94l7 250h163l35 -202q79 -29 154 -29q182 0 182 121q0 50 -37.5 83.5t-134.5 61.5l-111 33q-247 73 -247 305q0 146 113.5 241t314.5 95q155 0 323 -84l-14 -223h-164l-41 176q-44 16 -112 16q-71 0 -112.5 -29t-41.5 -85q0 -44 36 -75.5t136 -62.5
l100 -28q143 -42 208 -120.5t65 -197.5q0 -161 -123.5 -250.5t-341.5 -89.5zM627 -258q0 -99 -85 -174t-223 -119l-30 80q57 24 88.5 41t58.5 41q-112 58 -112 149q0 57 43 94t106 37q69 0 133 -45q21 -62 21 -104z" />
    <glyph glyph-name="uni021A" unicode="&#x21a;" horiz-adv-x="1298" 
d="M477 635v76q0 346 -4 520h-223l-39 -266h-170l8 381h1202l6 -381h-170l-36 266h-226q-4 -170 -4 -520v-74q0 -340 4 -508l176 -18v-111h-702v111l174 18q4 166 4 506zM825 -258q0 -99 -85 -174t-222 -119l-31 80q108 46 148 82q-113 58 -113 149q0 57 43 94t107 37
q69 0 133 -45q20 -59 20 -104z" />
    <glyph glyph-name="uni021B" unicode="&#x21b;" horiz-adv-x="733" 
d="M481 276q0 -69 28.5 -104t76.5 -35q53 0 110 45l52 -49q-87 -164 -302 -164q-292 0 -292 285q0 35 1 99.5t1 105.5v391h-133v121l151 20l102 287h209l-4 -289h215v-139h-215v-574zM586 -258q0 -99 -85 -174t-222 -119l-31 80q57 24 88.5 41t58.5 41q-112 58 -112 149
q0 57 43 94t106 37q69 0 133 -45q21 -62 21 -104z" />
    <glyph glyph-name="uni0237" unicode="&#x237;" horiz-adv-x="628" 
d="M168 156v372q0 135 -6 258l-125 19v80l426 137l37 -23l-6 -297v-598q0 -182 -30 -279t-106 -175q-70 -72 -158 -103.5t-173 -31.5q-109 0 -176 39.5t-93 101.5q7 71 51.5 114.5t108.5 43.5q62 0 111 -29.5t90 -97.5l16 -27q7 15 10 31q9 30 15 66.5t7.5 87.5t2 88.5
t-0.5 110.5t-1 112z" />
    <glyph glyph-name="uni0251" unicode="&#x251;" horiz-adv-x="1193" 
d="M406 487q0 -340 212 -340q68 0 130 50v620q-50 31 -107 31q-107 0 -171 -86.5t-64 -274.5zM465 -31q-173 0 -283 128.5t-110 365.5q0 129 37 236t101 177t149 108t182 38q147 0 250 -117l229 117l59 -21l-6 -276v-549q0 -59 47 -59q32 0 62 45l55 -37q-36 -82 -94.5 -118
t-153.5 -36q-82 0 -138 40.5t-77 107.5q-121 -150 -309 -150z" />
    <glyph glyph-name="uni0259" unicode="&#x259;" horiz-adv-x="1073" 
d="M512 74q70 0 115 87.5t45 280.5h-176q-76 0 -103.5 -28.5t-27.5 -100.5q0 -115 42 -177t105 -62zM526 -31q-227 0 -347 121t-120 320q0 83 13 139h594q-18 136 -89 206t-171 70q-139 0 -242 -110l-72 67q62 117 172.5 178.5t247.5 61.5q228 0 366 -140.5t138 -385.5
q0 -100 -27.5 -186t-74.5 -147.5t-109.5 -106t-133.5 -66t-145 -21.5z" />
    <glyph glyph-name="uni0261" unicode="&#x261;" horiz-adv-x="1193" 
d="M406 487q0 -176 56.5 -258t155.5 -82q68 0 130 50v620q-50 31 -107 31q-106 0 -170.5 -89t-64.5 -272zM465 -31q-173 0 -283 128.5t-110 365.5q0 172 63.5 300.5t169 193.5t236.5 65q147 0 250 -117l229 117l59 -21l-6 -276v-504q0 -217 -29.5 -336t-111.5 -207
q-147 -163 -438 -163q-181 0 -298.5 90.5t-125.5 224.5q20 56 53.5 79t87.5 23q59 0 92 -46.5t64 -170.5l22 -90q38 -6 66 -6q154 0 241 162q45 85 52 307q-113 -119 -283 -119z" />
    <glyph glyph-name="h.sups" unicode="&#x2b0;" horiz-adv-x="843" 
d="M539 1507q95 0 146.5 -57.5t51.5 -173.5v-356l78 -15v-61h-356v61l78 17v335q0 72 -17.5 100.5t-62.5 28.5q-62 0 -135 -67v-399l71 -15v-61h-356v61l82 17v749l-94 15v55l274 61l23 -12v-391q53 58 104.5 83t112.5 25z" />
    <glyph glyph-name="j.sups" unicode="&#x2b2;" horiz-adv-x="405" 
d="M221 1618q-48 0 -83.5 30t-35.5 74q0 45 35.5 75t83.5 30t81.5 -30t33.5 -75q0 -44 -33.5 -74t-81.5 -30zM121 942v416l-92 12v51l270 86l23 -14v-571q0 -129 -19 -197.5t-70 -120.5q-89 -82 -213 -82q-72 0 -115.5 25t-58.5 63q6 42 34.5 67t68.5 25q82 0 131 -73l8 -13
q3 3 8 13q5 9 8.5 20t6 25.5t4.5 26.5t3 32t2 33.5t1 39v41v47v48.5z" />
    <glyph glyph-name="r.sups" unicode="&#x2b3;" horiz-adv-x="632" 
d="M438 905v-61h-395v61l82 17v434l-92 12v53l256 86l22 -12l15 -164q30 83 81.5 129.5t104.5 46.5q92 0 111 -84q0 -52 -27.5 -83t-77.5 -31q-60 0 -104 53l-6 8q-59 -62 -82 -151v-291z" />
    <glyph glyph-name="w.sups" unicode="&#x2b7;" horiz-adv-x="1087" 
d="M827 1423v60h256v-60l-84 -14l-208 -573h-93l-168 424l-157 -424h-92l-218 577l-71 10v60h358v-60l-84 -10l115 -348l127 348l-86 10v60h330v-60l-78 -10l121 -346l114 344z" />
    <glyph glyph-name="y.sups" unicode="&#x2b8;" horiz-adv-x="720" 
d="M461 1423v60h260v-60l-82 -12l-240 -612q-59 -145 -115 -207t-145 -62q-55 0 -94 28.5t-39 72.5q11 31 37 47t57 16q30 0 55 -10t60 -39l14 -12q60 57 101 160l-269 616l-77 14v60h387v-60l-95 -18l142 -375l137 379z" />
    <glyph glyph-name="quoteleft" unicode="&#x2018;" horiz-adv-x="442" 
d="M49 1096q0 130 87.5 239.5t230.5 171.5l36 -77q-52 -31 -101.5 -80t-84.5 -109l90 -63q80 -62 80 -152q0 -67 -46.5 -111.5t-111.5 -44.5q-67 0 -135 56q-45 74 -45 170z" />
    <glyph glyph-name="quoteleft" unicode="&#x2bb;" horiz-adv-x="442" 
d="M49 1096q0 130 87.5 239.5t230.5 171.5l36 -77q-52 -31 -101.5 -80t-84.5 -109l90 -63q80 -62 80 -152q0 -67 -46.5 -111.5t-111.5 -44.5q-67 0 -135 56q-45 74 -45 170z" />
    <glyph glyph-name="quoteright" unicode="&#x2019;" horiz-adv-x="442" 
d="M393 1284q0 -131 -87 -241t-230 -171l-37 78q52 31 101.5 80t84.5 109l-90 63q-80 62 -80 152q0 67 46.5 111t111.5 44q68 0 135 -55q45 -74 45 -170z" />
    <glyph glyph-name="quoteright" unicode="&#x2bc;" horiz-adv-x="442" 
d="M393 1284q0 -131 -87 -241t-230 -171l-37 78q52 31 101.5 80t84.5 109l-90 63q-80 62 -80 152q0 67 46.5 111t111.5 44q68 0 135 -55q45 -74 45 -170z" />
    <glyph glyph-name="uni02BE" unicode="&#x2be;" horiz-adv-x="360" 
d="M45 1133v104q61 0 97 40t36 91q0 53 -36 91t-97 38v105q128 0 199 -63t71 -171q0 -110 -71 -172.5t-199 -62.5z" />
    <glyph glyph-name="uni02BF" unicode="&#x2bf;" horiz-adv-x="360" 
d="M45 1368q0 108 71 171t199 63v-105q-61 0 -97 -38t-36 -91q0 -51 36 -91t97 -40v-104q-128 0 -199 62.5t-71 172.5z" />
    <glyph glyph-name="circumflex" unicode="&#x2c6;" horiz-adv-x="819" 
d="M684 1116l-274 211l-275 -211l-74 68l283 358h131l283 -358z" />
    <glyph glyph-name="caron" unicode="&#x2c7;" horiz-adv-x="819" 
d="M158 1571l252 -213l252 213l79 -66l-243 -348h-176l-244 348z" />
    <glyph glyph-name="uni02C8" unicode="&#x2c8;" horiz-adv-x="301" 
d="M43 1087l-12 420h239l-12 -420h-215z" />
    <glyph glyph-name="uni02CC" unicode="&#x2cc;" horiz-adv-x="301" 
d="M31 -551l12 418h217l12 -418h-241z" />
    <glyph glyph-name="breve" unicode="&#x2d8;" horiz-adv-x="819" 
d="M78 1479l100 30q77 -180 232 -180q84 0 141.5 49.5t89.5 130.5l100 -30q-5 -57 -24.5 -109.5t-56.5 -102t-101.5 -79t-148.5 -29.5q-68 0 -123.5 20t-92 52t-62 75.5t-38 86t-16.5 86.5z" />
    <glyph glyph-name="dotaccent" unicode="&#x2d9;" horiz-adv-x="819" 
d="M410 1167q-73 0 -123.5 46t-50.5 116q0 71 50.5 117.5t123.5 46.5t123.5 -46.5t50.5 -117.5q0 -70 -50.5 -116t-123.5 -46z" />
    <glyph glyph-name="ring" unicode="&#x2da;" horiz-adv-x="819" 
d="M410 1237q55 0 87.5 40t32.5 91q0 53 -32 91t-88 38t-88.5 -38t-32.5 -91q0 -51 33 -91t88 -40zM410 1133q-106 0 -177 64.5t-71 170.5q0 105 71.5 169.5t176.5 64.5q107 0 177 -62.5t70 -171.5t-70 -172t-177 -63z" />
    <glyph glyph-name="ogonek" unicode="&#x2db;" horiz-adv-x="819" 
d="M160 -262q0 183 241 280h84q-114 -63 -114 -176q0 -63 39.5 -99t105.5 -36q53 0 111 21l30 -88q-46 -48 -118.5 -74.5t-151.5 -26.5q-106 0 -166.5 56t-60.5 143z" />
    <glyph glyph-name="tilde" unicode="&#x2dc;" horiz-adv-x="819" 
d="M51 1204q17 135 78.5 210t151.5 75q66 0 151 -55q63 -47 93 -57q21 -7 40 -7q84 0 127 121l84 -35q-17 -134 -77.5 -210.5t-147.5 -76.5q-67 0 -156 56q-5 3 -20 14.5t-22 16t-20.5 12.5t-23.5 12t-23 7t-26 3q-82 0 -125 -121z" />
    <glyph glyph-name="hungarumlaut" unicode="&#x2dd;" horiz-adv-x="819" 
d="M141 1174l92 290q25 81 62 114.5t88 33.5q41 0 66.5 -25.5t25.5 -70.5q0 -54 -67 -144l-183 -244zM440 1180l101 288q48 142 145 142q45 0 70.5 -25.5t25.5 -66.5q0 -63 -71 -148l-187 -240z" />
    <glyph glyph-name="l.sups" unicode="&#x2e1;" horiz-adv-x="421" 
d="M25 1741l274 61l23 -12v-870l75 -15v-61h-358v61l80 17v749l-94 15v55z" />
    <glyph glyph-name="s.sups" unicode="&#x2e2;" horiz-adv-x="616" 
d="M276 823q-125 0 -231 62v157h105l24 -124q47 -23 107 -23q127 0 127 82q0 36 -26.5 58t-94.5 44l-70 21q-168 55 -168 196q0 93 75 152t204 59q108 0 213 -51l-9 -145h-104l-25 110q-35 15 -79 15q-50 0 -79.5 -20t-29.5 -58q0 -31 25 -53t94 -43l61 -19
q185 -57 185 -205q0 -99 -81 -157t-223 -58z" />
    <glyph glyph-name="x.sups" unicode="&#x2e3;" horiz-adv-x="753" 
d="M465 1423v60h240v-60l-78 -14l-160 -211l186 -278l78 -15v-61h-377v61l68 10l-105 166l-112 -163l71 -13v-61h-260v61l97 15l166 221l-183 272l-76 10v60h365v-60l-61 -8l104 -158l107 154z" />
    <glyph glyph-name="uni0300" unicode="&#x300;" 
d="M133 1196l-78 -63q-106 82 -227 172q-66 50 -97.5 89.5t-31.5 82.5q0 51 34.5 81.5t78.5 30.5q49 0 82.5 -28t76.5 -99q156 -255 162 -266z" />
    <glyph glyph-name="uni0301" unicode="&#x301;" 
d="M-150 1196q54 95 160 264q43 71 77.5 100t84.5 29q44 0 77.5 -30.5t33.5 -81.5q0 -44 -32 -84.5t-97 -87.5q-164 -124 -226 -172z" />
    <glyph glyph-name="uni0302" unicode="&#x302;" 
d="M274 1116l-274 211l-274 -211l-74 68l282 358h132l282 -358z" />
    <glyph glyph-name="uni0303" unicode="&#x303;" 
d="M-362 1204q17 135 78 210t151 75q66 0 151 -55q30 -22 43 -31t40 -21t51 -12q84 0 127 121l83 -35q-17 -134 -77.5 -210.5t-147.5 -76.5q-66 0 -155 56q-3 2 -20 14t-22.5 16t-20.5 13t-24 12t-22.5 6.5t-26.5 3.5q-82 0 -125 -121z" />
    <glyph glyph-name="uni0304" unicode="&#x304;" 
d="M-326 1202v182h652v-182h-652z" />
    <glyph glyph-name="uni0306" unicode="&#x306;" 
d="M-332 1479l101 30q77 -180 231 -180q84 0 141.5 49.5t89.5 130.5l101 -30q-4 -44 -16.5 -86.5t-38 -86t-62 -75.5t-92 -52t-123.5 -20t-123.5 20t-92 52t-62 75.5t-38 86t-16.5 86.5z" />
    <glyph glyph-name="uni0307" unicode="&#x307;" 
d="M0 1167q-73 0 -123.5 46t-50.5 116q0 71 50.5 117.5t123.5 46.5t123.5 -46.5t50.5 -117.5q0 -70 -50.5 -116t-123.5 -46z" />
    <glyph glyph-name="uni0308" unicode="&#x308;" 
d="M246 1178q-65 0 -111.5 40.5t-46.5 108.5q0 67 47 108.5t111 41.5q65 0 111 -41.5t46 -108.5q0 -68 -45.5 -108.5t-111.5 -40.5zM-246 1178q-65 0 -111 40.5t-46 108.5q0 67 46.5 108.5t110.5 41.5q66 0 112 -41.5t46 -108.5q0 -68 -45.5 -108.5t-112.5 -40.5z" />
    <glyph glyph-name="uni0309" unicode="&#x309;" 
d="M-66 1139l-28 96q67 20 93 41t26 51q0 31 -36 46.5t-132 27.5l22 205q151 -12 227 -76.5t76 -175.5q0 -90 -64.5 -145.5t-183.5 -69.5z" />
    <glyph glyph-name="uni030A" unicode="&#x30a;" 
d="M0 1237q55 0 88 40t33 91q0 53 -32.5 91t-88.5 38t-88.5 -38t-32.5 -91q0 -51 33 -91t88 -40zM0 1133q-106 0 -177 64.5t-71 170.5q0 105 71.5 169.5t176.5 64.5q107 0 177.5 -62.5t70.5 -171.5t-70.5 -172t-177.5 -63z" />
    <glyph glyph-name="uni030B" unicode="&#x30b;" 
d="M-227 1174l92 290q25 81 62 114.5t87 33.5q41 0 66.5 -25.5t25.5 -70.5q0 -54 -67 -144l-182 -244zM72 1180l100 288q48 142 145 142q45 0 71 -25.5t26 -66.5q0 -61 -72 -148l-186 -240z" />
    <glyph glyph-name="uni030C" unicode="&#x30c;" 
d="M-252 1571l252 -213l252 213l80 -66l-244 -348h-176l-244 348z" />
    <glyph glyph-name="uni031B" unicode="&#x31b;" 
d="M-25 776l-10 88q91 11 144 45.5t53 87.5q0 28 -34 82.5t-34 96.5q0 41 33.5 72.5t83.5 31.5q56 0 94 -33q23 -52 23 -127q0 -142 -104 -238.5t-249 -105.5z" />
    <glyph glyph-name="uni0323" unicode="&#x323;" 
d="M0 -461q-73 0 -123.5 46t-50.5 116q0 71 50.5 117.5t123.5 46.5t123.5 -46.5t50.5 -117.5q0 -70 -50.5 -116t-123.5 -46z" />
    <glyph glyph-name="uni0324" unicode="&#x324;" 
d="M246 -434q-65 0 -111.5 40.5t-46.5 108.5q0 67 47 108.5t111 41.5q65 0 111 -41.5t46 -108.5q0 -68 -45.5 -108.5t-111.5 -40.5zM-246 -434q-65 0 -111 40.5t-46 108.5q0 67 46.5 108.5t110.5 41.5q66 0 112 -41.5t46 -108.5q0 -68 -45.5 -108.5t-112.5 -40.5z" />
    <glyph glyph-name="uni0326" unicode="&#x326;" 
d="M152 -258q0 -99 -85 -174t-223 -119l-30 80q57 24 88.5 41t58.5 41q-113 58 -113 149q0 57 43 94t107 37q69 0 133 -45q21 -62 21 -104z" />
    <glyph glyph-name="uni0327" unicode="&#x327;" 
d="M-76 -182l29 190h106l-12 -112q104 -20 154.5 -65.5t50.5 -109.5q0 -81 -71.5 -131.5t-205.5 -50.5q-80 0 -159 27l22 94q62 -16 109 -16q106 0 106 77q0 88 -129 97z" />
    <glyph glyph-name="uni0328" unicode="&#x328;" 
d="M-260 -262q0 183 242 280h84q-115 -63 -115 -176q0 -63 39.5 -99t105.5 -36q53 0 111 21l31 -88q-46 -48 -119 -74.5t-152 -26.5q-106 0 -166.5 56t-60.5 143z" />
    <glyph glyph-name="uni0329" unicode="&#x329;" 
d="M-121 -551l12 418h218l12 -418h-242z" />
    <glyph glyph-name="uni032E" unicode="&#x32e;" 
d="M-332 -170l101 31q77 -180 231 -180q84 0 141.5 49.5t89.5 130.5l101 -31q-4 -44 -16.5 -86.5t-38 -85.5t-62 -75t-92 -52t-123.5 -20t-123.5 20t-92 52t-62 75t-38 85.5t-16.5 86.5z" />
    <glyph glyph-name="uni0331" unicode="&#x331;" 
d="M-326 -395v182h652v-182h-652z" />
    <glyph glyph-name="uni0374" unicode="&#x374;" horiz-adv-x="524" 
d="M104 813l39 635q68 45 142 45q68 0 106.5 -37.5t38.5 -103.5q0 -15 -3 -34t-9.5 -43.5t-13 -45t-19 -55t-20.5 -56.5t-24.5 -65t-25.5 -66q-15 -40 -79 -192z" />
    <glyph glyph-name="uni0375" unicode="&#x375;" horiz-adv-x="524" 
d="M432 408l-39 -635q-68 -45 -141 -45q-68 0 -107 37.5t-39 103.5q0 18 5 43t10.5 46.5t19.5 61t22.5 62t28.5 75t29 76.5t80 193z" />
    <glyph glyph-name="uni037E" unicode="&#x37e;" horiz-adv-x="653" 
d="M326 664q-78 0 -131.5 53.5t-53.5 128.5q0 76 54 131t131 55t130.5 -55t53.5 -131t-53 -129t-131 -53zM506 115q0 -101 -38 -192t-100.5 -156t-135 -111t-148.5 -70l-29 86q196 105 273 279l-72 37q-115 63 -115 172q0 75 51.5 126.5t129.5 51.5q88 0 153 -57
q31 -78 31 -166z" />
    <glyph glyph-name="tonos" unicode="&#x384;" horiz-adv-x="819" 
d="M315 1137q5 39 15 102t12 78q17 124 39.5 190t48 86.5t66.5 20.5q51 0 85.5 -27t34.5 -86q0 -36 -22 -87.5t-82 -166.5q-2 -3 -88 -147z" />
    <glyph glyph-name="dieresistonos" unicode="&#x385;" horiz-adv-x="819" 
d="M418 1130l-111 29q36 189 43 238q23 134 53 181.5t84 47.5q42 0 70.5 -24.5t28.5 -69.5q0 -27 -11.5 -63t-25.5 -68.5t-57 -124.5q-31 -75 -74 -146zM723 1200q-48 0 -84.5 31.5t-36.5 83.5q0 53 36.5 86t84.5 33q49 0 84 -32.5t35 -86.5q0 -52 -35 -83.5t-84 -31.5z
M141 1200q-50 0 -85.5 31.5t-35.5 83.5q0 53 36 86t85 33t85 -33t36 -86q0 -52 -35.5 -83.5t-85.5 -31.5z" />
    <glyph glyph-name="Alphatonos" unicode="&#x386;" horiz-adv-x="1427" 
d="M63 0v111l166 24l416 1213h211l420 -1227l125 -15v-106h-633v106l158 21l-84 264h-412l-82 -256l156 -24v-111h-441zM51 885q3 39 11.5 113t11.5 98q13 112 33.5 173t45.5 81t66 20q52 0 87.5 -27.5t35.5 -87.5q0 -58 -41 -143q-128 -241 -139 -260zM639 1032l-170 -522
h336z" />
    <glyph glyph-name="anoteleia" unicode="&#x387;" horiz-adv-x="614" 
d="M307 653q-77 0 -130.5 53.5t-53.5 129.5t53.5 131t130.5 55t131 -55t54 -131t-54 -129.5t-131 -53.5z" />
    <glyph glyph-name="Epsilontonos" unicode="&#x388;" horiz-adv-x="1505" 
d="M0 885q2 40 11.5 117.5t11.5 93.5q12 112 32.5 173t46 81t66.5 20q51 0 87 -28t36 -87q0 -64 -43 -143q-90 -175 -137 -260zM1243 993l-41 238h-342q-4 -156 -4 -475h221l25 159h119v-440h-119l-25 160h-221q0 -354 4 -520h383l41 237h170l-14 -352h-1086v111l154 16
q4 166 4 508v76q0 340 -4 508l-154 16v111h1045l14 -353h-170z" />
    <glyph glyph-name="Etatonos" unicode="&#x389;" horiz-adv-x="1849" 
d="M0 885q2 40 11.5 117.5t11.5 93.5q12 112 32.5 173t46 81t66.5 20q51 0 87 -28t36 -87q0 -64 -43 -143q-90 -175 -137 -260zM508 635v76q0 338 -4 508l-150 16v111h645v-111l-143 -14q-4 -168 -4 -469h436q0 313 -4 469l-143 14v111h647v-111l-152 -16q-4 -166 -4 -508
v-76q0 -340 4 -508l152 -16v-111h-647v111l143 14q4 168 4 506h-436q0 -344 4 -506l143 -14v-111h-645v111l150 16q4 166 4 508z" />
    <glyph glyph-name="Iotatonos" unicode="&#x38a;" horiz-adv-x="1081" 
d="M0 885q2 40 11.5 117.5t11.5 93.5q12 112 32.5 173t46 81t66.5 20q51 0 87 -28t36 -87q0 -64 -43 -143q-90 -175 -137 -260zM512 635v76q0 340 -4 508l-154 16v111h660v-111l-154 -16q-4 -166 -4 -508v-74q0 -342 4 -510l154 -16v-111h-660v111l154 16q4 166 4 508z" />
    <glyph glyph-name="Omicrontonos" unicode="&#x38c;" horiz-adv-x="1634" 
d="M0 885q2 40 11.5 117.5t11.5 93.5q12 112 32.5 173t46 81t66.5 20q51 0 87 -28t36 -87q0 -64 -43 -143q-90 -175 -137 -260zM629 674q0 -131 16 -237t49.5 -187t89.5 -125.5t131 -44.5q76 0 132 44.5t89.5 126t49.5 187t16 236.5t-16 236t-49.5 186t-89.5 125.5
t-132 44.5q-75 0 -131 -44.5t-89.5 -125.5t-49.5 -186.5t-16 -235.5zM915 1384q129 0 244 -45t206.5 -130.5t145.5 -223.5t54 -311q0 -172 -53.5 -310t-145 -224.5t-207 -132.5t-244.5 -46t-244.5 45t-206.5 131t-144.5 224.5t-53.5 312.5q0 171 54 308.5t145 224t206.5 132
t243.5 45.5z" />
    <glyph glyph-name="Upsilontonos" unicode="&#x38e;" horiz-adv-x="1642" 
d="M0 885q2 40 11.5 117.5t11.5 93.5q12 112 32.5 173t46 81t66.5 20q51 0 87 -28t36 -87q0 -64 -43 -143q-90 -175 -137 -260zM1212 1235v111h424v-111l-149 -25l-309 -628q0 -330 2 -453l178 -18v-111h-703v111l176 18q3 167 3 399l-340 695l-115 12v111h659v-111
l-153 -18l233 -519l236 514z" />
    <glyph glyph-name="Omegatonos" unicode="&#x38f;" horiz-adv-x="1697" 
d="M-2 885q5 79 22 211q18 163 51 218.5t95 55.5q51 0 86 -27.5t35 -87.5q0 -68 -41 -143q-90 -175 -137 -260zM938 1266q-70 0 -124.5 -28t-86.5 -71.5t-52.5 -105t-28 -120t-7.5 -124.5q0 -173 59.5 -342t159.5 -276v-199h-608l-10 393h137l33 -162h254v9
q-156 93 -260.5 244t-104.5 327q0 120 40 223t117.5 181.5t201 123.5t280.5 45t280.5 -45t200 -124t116.5 -181.5t40 -222.5q0 -176 -104.5 -327.5t-260.5 -243.5v-9h254l33 162h139l-10 -393h-608v199q98 107 157.5 276t59.5 342q0 66 -7.5 124.5t-28 119.5t-52.5 105
t-85.5 72t-123.5 28z" />
    <glyph glyph-name="iotadieresistonos" unicode="&#x390;" horiz-adv-x="649" 
d="M397 -31q-120 0 -176.5 69t-62.5 220l-19 696l314 60l30 -23q-41 -605 -41 -696q1 -75 26.5 -103t76.5 -28q37 0 67 12l29 -72q-37 -64 -100.5 -99.5t-143.5 -35.5zM375 1130l-111 29q36 189 43 238q23 134 53 181.5t84 47.5q42 0 70.5 -24.5t28.5 -69.5q0 -27 -11.5 -63
t-25.5 -68.5t-57 -124.5q-31 -75 -74 -146zM680 1200q-48 0 -84.5 31.5t-36.5 83.5q0 53 36.5 86t84.5 33q49 0 84 -32.5t35 -86.5q0 -52 -35 -83.5t-84 -31.5zM98 1200q-50 0 -85.5 31.5t-35.5 83.5q0 53 36 86t85 33t85 -33t36 -86q0 -52 -35.5 -83.5t-85.5 -31.5z" />
    <glyph glyph-name="Alpha" unicode="&#x391;" horiz-adv-x="1382" 
d="M594 1032l-170 -522h336zM18 0v111l166 24l416 1213h211l420 -1227l125 -15v-106h-633v106l158 21l-84 264h-412l-82 -256l156 -24v-111h-441z" />
    <glyph glyph-name="Beta" unicode="&#x392;" horiz-adv-x="1333" 
d="M225 643v59q0 345 -4 517l-153 16v111h661q247 0 362 -86.5t115 -231.5q0 -114 -79.5 -193t-268.5 -114q428 -52 428 -344q0 -55 -16.5 -105t-61 -101t-113.5 -87.5t-183.5 -60t-260.5 -23.5h-583v111l153 16q4 168 4 516zM633 649h-70q0 -362 4 -530h66
q144 0 222.5 66.5t78.5 195.5q0 139 -74 203.5t-227 64.5zM639 1227h-72q-4 -154 -4 -469h58q253 0 253 246q0 114 -57.5 168.5t-177.5 54.5z" />
    <glyph glyph-name="Gamma" unicode="&#x393;" horiz-adv-x="1175" 
d="M68 1235v111h1046l14 -408h-167l-48 293h-340q-4 -170 -4 -520v-107q0 -307 4 -475l183 -18v-111h-688v111l153 16q4 166 4 475v109q0 340 -4 508z" />
    <glyph glyph-name="Delta" unicode="&#x2206;" horiz-adv-x="1288" 
d="M74 0v170l487 1178h211l455 -1178v-170h-1153zM219 223h635l-303 832z" />
    <glyph glyph-name="Delta" unicode="&#x394;" horiz-adv-x="1288" 
d="M74 0v170l487 1178h211l455 -1178v-170h-1153zM219 223h635l-303 832z" />
    <glyph glyph-name="Epsilon" unicode="&#x395;" horiz-adv-x="1218" 
d="M225 635v76q0 340 -4 508l-153 16v111h1044l14 -353h-170l-41 238h-342q-4 -156 -4 -475h222l24 159h119v-440h-119l-24 160h-222q0 -354 4 -520h383l41 237h170l-14 -352h-1085v111l153 16q4 166 4 508z" />
    <glyph glyph-name="Zeta" unicode="&#x396;" horiz-adv-x="1153" 
d="M223 965h-162l17 381h1014v-95l-660 -1134h463l53 264h164l-16 -381h-1055v94l657 1135h-422z" />
    <glyph glyph-name="Eta" unicode="&#x397;" horiz-adv-x="1566" 
d="M221 635v76q0 338 -4 508l-149 16v111h645v-111l-144 -14q-4 -168 -4 -469h436q0 313 -4 469l-143 14v111h647v-111l-151 -16q-4 -166 -4 -508v-76q0 -340 4 -508l151 -16v-111h-647v111l143 14q4 168 4 506h-436q0 -344 4 -506l144 -14v-111h-645v111l149 16
q4 166 4 508z" />
    <glyph glyph-name="Theta" unicode="&#x398;" horiz-adv-x="1437" 
d="M840 477l-15 86h-213l-14 -86h-102v408h102l14 -88h213l15 88h104v-408h-104zM719 80q83 0 144 44.5t97 126t53 186.5t17 237q0 131 -17 236t-53 186t-97 125.5t-144 44.5q-82 0 -143 -44.5t-97 -125.5t-53.5 -186t-17.5 -236t17.5 -236.5t53.5 -187t97 -126t143 -44.5z
M719 -39q-129 0 -244.5 45t-206.5 131t-144.5 224.5t-53.5 312.5q0 171 54 308.5t145 224t206.5 132t243.5 45.5q102 0 196.5 -27.5t177 -85.5t143.5 -140.5t96.5 -200t35.5 -256.5q0 -172 -53.5 -310t-144.5 -224.5t-206.5 -132.5t-244.5 -46z" />
    <glyph glyph-name="Iota" unicode="&#x399;" horiz-adv-x="794" 
d="M225 635v76q0 340 -4 508l-153 16v111h659v-111l-154 -16q-4 -166 -4 -508v-74q0 -342 4 -510l154 -16v-111h-659v111l153 16q4 166 4 508z" />
    <glyph glyph-name="Kappa" unicode="&#x39a;" horiz-adv-x="1425" 
d="M225 635v76q0 340 -4 508l-153 16v111h645v-111l-156 -16q-4 -166 -4 -508v-68l459 567l-135 25v111h475v-111l-195 -25l-270 -323l403 -762l125 -14v-111h-592v111l99 10l-252 510l-117 -139q0 -242 4 -365l133 -16v-111h-622v111l153 16q4 166 4 508z" />
    <glyph glyph-name="Lambda" unicode="&#x39b;" horiz-adv-x="1347" 
d="M584 1348h211l428 -1225l118 -12v-111h-661v102l178 23l-283 860l-288 -854l166 -29v-102h-443v111l150 24z" />
    <glyph glyph-name="Mu" unicode="&#x39c;" horiz-adv-x="1835" 
d="M37 0v111l199 24v1079l-181 21v111h541l334 -902l313 902h518v-111l-145 -16q-4 -168 -4 -508v-76q0 -340 4 -508l151 -16v-111h-653v111l150 18q2 94 2.5 255t1.5 208l4 452l-365 -1044h-157l-392 1047l11 -410v-500l168 -26v-111h-500z" />
    <glyph glyph-name="Nu" unicode="&#x39d;" horiz-adv-x="1490" 
d="M893 1235v111h539v-111l-175 -27v-1212h-172l-720 999v-858l233 -26v-111h-541v111l174 24v1047l-28 39l-142 14v111h463l602 -828v690z" />
    <glyph glyph-name="Xi" unicode="&#x39e;" horiz-adv-x="1159" 
d="M799 477l-15 90h-409l-15 -90h-118v400h118l15 -82h409l15 82h119v-400h-119zM90 1346h979l14 -398h-139l-22 148h-684l-23 -148h-139zM1092 0h-1024l-15 397h140l22 -147h729l23 147h139z" />
    <glyph glyph-name="Omicron" unicode="&#x39f;" horiz-adv-x="1437" 
d="M432 674q0 -131 16.5 -237t50 -187t89.5 -125.5t131 -44.5q76 0 132 44.5t89.5 126t49.5 187t16 236.5t-16 236t-49.5 186t-89.5 125.5t-132 44.5q-99 0 -165 -79t-94 -208t-28 -305zM719 1384q102 0 196.5 -27.5t177 -85.5t143.5 -140.5t96.5 -200t35.5 -256.5
q0 -172 -53.5 -310t-144.5 -224.5t-206.5 -132.5t-244.5 -46t-244.5 45t-206.5 131t-144.5 224.5t-53.5 312.5q0 171 54 308.5t145 224t206.5 132t243.5 45.5z" />
    <glyph glyph-name="Pi" unicode="&#x3a0;" horiz-adv-x="1550" 
d="M221 635v76q0 340 -4 508l-149 16v111h1415v-111l-150 -16q-4 -166 -4 -508v-76q0 -340 4 -508l150 -16v-111h-645v111l143 14q4 168 4 522v64q0 342 -4 512h-412q-4 -168 -4 -512v-64q0 -352 4 -522l144 -14v-111h-645v111l149 16q4 166 4 508z" />
    <glyph glyph-name="Rho" unicode="&#x3a1;" horiz-adv-x="1255" 
d="M225 635v76q0 340 -4 508l-153 16v111h557q308 0 452 -106.5t144 -299.5q0 -72 -19 -134t-63 -116.5t-111 -93t-169 -60.5t-232 -22h-58q0 -248 4 -385l183 -18v-111h-688v111l153 16q4 166 4 508zM621 1227h-48q-4 -170 -4 -516v-82h60q132 0 201 84.5t69 228.5
q0 140 -71.5 212.5t-206.5 72.5z" />
    <glyph glyph-name="Sigma" unicode="&#x3a3;" horiz-adv-x="1146" 
d="M1077 0h-1022v172l398 477l-377 592v105h968l17 -396h-162l-55 279h-447l314 -508l-394 -469h560l53 266h164z" />
    <glyph glyph-name="Tau" unicode="&#x3a4;" horiz-adv-x="1298" 
d="M477 635v76q0 346 -4 520h-223l-39 -266h-170l8 381h1202l6 -381h-170l-36 266h-226q-4 -170 -4 -520v-74q0 -340 4 -508l176 -18v-111h-702v111l174 18q4 166 4 506z" />
    <glyph glyph-name="Upsilon" unicode="&#x3a5;" horiz-adv-x="1277" 
d="M850 1235v111h424v-111l-150 -25l-309 -628q0 -330 2 -453l178 -18v-111h-702v111l176 18q2 111 2 399l-340 695l-115 12v111h660v-111l-154 -18l234 -519l235 514z" />
    <glyph glyph-name="Phi" unicode="&#x3a6;" horiz-adv-x="1624" 
d="M502 1257v111h622v-111l-157 -18q0 -17 -1 -50t-1 -50q139 -2 247.5 -37t177.5 -96t104.5 -140.5t35.5 -173.5q0 -207 -144.5 -328.5t-420.5 -127.5q0 -20 1 -58t1 -57l157 -19v-108h-622v108l155 17q2 39 2 117q-276 6 -420.5 127.5t-144.5 328.5q0 94 35.5 173.5
t104.5 140.5t177.5 96t247.5 37q0 67 -2 100zM401 684q0 -139 71 -229t190 -99v279v76v309q-129 -7 -195 -94.5t-66 -241.5zM963 637q0 -187 2 -279q118 9 187 98t69 228q0 155 -64.5 242t-191.5 94q-2 -102 -2 -307v-76z" />
    <glyph glyph-name="Chi" unicode="&#x3a7;" horiz-adv-x="1339" 
d="M23 1235v111h641v-111l-123 -14l202 -349l213 353l-127 10v111h428v-111l-153 -12l-297 -459l373 -639l145 -14v-111h-674v111l150 16l-228 391l-251 -397l129 -10v-111h-437v111l160 14l336 502l-346 592z" />
    <glyph glyph-name="Psi" unicode="&#x3a8;" horiz-adv-x="1695" 
d="M160 1010l-17 116q-8 52 -31 77t-73 28l-41 4v111h115q164 0 238 -61.5t93 -213.5l13 -106q11 -90 24 -144t38 -103t66.5 -76t104.5 -40v33v76q0 340 -4 510l-119 14v111h561v-111l-118 -14q-4 -168 -4 -510v-74v-35q63 13 104.5 40t66.5 76t38 103t24 144l12 106
q19 152 93.5 213.5t238.5 61.5h115v-111l-41 -4q-51 -3 -74 -28t-31 -77l-16 -116q-14 -86 -30.5 -149t-43.5 -122t-65 -99t-92.5 -72.5t-128.5 -51.5t-170 -27q0 -241 4 -362l153 -16v-111h-631v111l154 16q4 119 4 362q-96 8 -170 27t-128.5 51.5t-92.5 72.5t-65 99
t-43.5 122t-30.5 149z" />
    <glyph glyph-name="Omega" unicode="&#x2126;" horiz-adv-x="1521" 
d="M762 1266q-70 0 -124.5 -28t-86.5 -71.5t-52.5 -105t-28 -120t-7.5 -124.5q0 -173 59.5 -342t159.5 -276v-199h-608l-11 393h138l32 -162h254v9q-155 92 -259.5 243t-104.5 328q0 120 40 223t117.5 181.5t201 123.5t280.5 45t280.5 -45t200 -124t116.5 -181.5t40 -222.5
q0 -176 -104.5 -327.5t-260.5 -243.5v-9h254l33 162h139l-10 -393h-608v199q98 107 157.5 276t59.5 342q0 66 -7.5 124.5t-28 119.5t-52.5 105t-85.5 72t-123.5 28z" />
    <glyph glyph-name="Omega" unicode="&#x3a9;" horiz-adv-x="1521" 
d="M762 1266q-70 0 -124.5 -28t-86.5 -71.5t-52.5 -105t-28 -120t-7.5 -124.5q0 -173 59.5 -342t159.5 -276v-199h-608l-11 393h138l32 -162h254v9q-155 92 -259.5 243t-104.5 328q0 120 40 223t117.5 181.5t201 123.5t280.5 45t280.5 -45t200 -124t116.5 -181.5t40 -222.5
q0 -176 -104.5 -327.5t-260.5 -243.5v-9h254l33 162h139l-10 -393h-608v199q98 107 157.5 276t59.5 342q0 66 -7.5 124.5t-28 119.5t-52.5 105t-85.5 72t-123.5 28z" />
    <glyph glyph-name="Iotadieresis" unicode="&#x3aa;" horiz-adv-x="794" 
d="M225 635v76q0 340 -4 508l-153 16v111h659v-111l-154 -16q-4 -166 -4 -508v-74q0 -342 4 -510l154 -16v-111h-659v111l153 16q4 166 4 508zM141 1460q-61 0 -105 39t-44 103t44 102.5t105 38.5q64 0 108 -38.5t44 -102.5t-44 -103t-108 -39zM651 1460q-61 0 -105 39
t-44 103t44 102.5t105 38.5q64 0 108 -38.5t44 -102.5t-44 -103t-108 -39z" />
    <glyph glyph-name="Upsilondieresis" unicode="&#x3ab;" horiz-adv-x="1277" 
d="M850 1235v111h424v-111l-150 -25l-309 -628q0 -330 2 -453l178 -18v-111h-702v111l176 18q2 111 2 399l-340 695l-115 12v111h660v-111l-154 -18l234 -519l235 514zM496 1460q-61 0 -105.5 39t-44.5 103t44.5 102.5t105.5 38.5q64 0 107.5 -38.5t43.5 -102.5t-43.5 -103
t-107.5 -39zM1006 1460q-61 0 -105.5 39t-44.5 103t44.5 102.5t105.5 38.5q64 0 107.5 -38.5t43.5 -102.5t-43.5 -103t-107.5 -39z" />
    <glyph glyph-name="alphatonos" unicode="&#x3ac;" horiz-adv-x="1202" 
d="M369 580q0 -122 15.5 -211.5t43.5 -140.5t63.5 -75t79.5 -24q65 0 105.5 57t44.5 172l12 390q-61 116 -182 116q-81 0 -131.5 -73t-50.5 -211zM475 -31q-82 0 -155 32.5t-131.5 95.5t-93 165.5t-34.5 231.5q0 120 38 221.5t100.5 167.5t140.5 102.5t160 36.5
q168 0 239 -164l11 107l290 47l35 -25q-69 -474 -69 -690q0 -133 86 -133q43 0 73 12l29 -72q-27 -58 -89 -96.5t-136 -38.5q-71 0 -127.5 41t-79.5 113q-93 -154 -287 -154zM598 1122q5 39 15 102.5t12 78.5q17 124 39 189.5t47.5 86t66.5 20.5q52 0 86.5 -27t34.5 -85
q0 -36 -22 -87.5t-82 -166.5q-7 -13 -88 -148z" />
    <glyph glyph-name="epsilontonos" unicode="&#x3ad;" horiz-adv-x="966" 
d="M70 242q0 198 307 243q-128 25 -196 97.5t-68 165.5q0 122 111 198t321 76q136 0 228 -40t118 -112q0 -55 -35.5 -86.5t-93.5 -31.5q-44 0 -77 14t-81 51l-125 94q-43 -14 -69.5 -48.5t-26.5 -84.5q0 -71 54 -114t165 -43q38 0 78 4v-201q-27 4 -78 4q-120 0 -172.5 -32
t-52.5 -95q0 -56 51 -91.5t143 -35.5q82 0 149.5 27t145.5 86l72 -84q-75 -122 -182 -178t-269 -56q-178 0 -297.5 73t-119.5 200zM498 1122q5 39 14.5 103.5t11.5 77.5q17 124 39.5 189.5t48 86t66.5 20.5q52 0 86.5 -27t34.5 -85q0 -36 -22 -86.5t-83 -167.5
q-7 -13 -88 -148z" />
    <glyph glyph-name="etatonos" unicode="&#x3ae;" horiz-adv-x="1193" 
d="M737 -362l45 462l11 502q3 117 -33 162t-101 45q-44 0 -93.5 -29.5t-92.5 -81.5l10 -700l-307 -27l-35 35l41 457v221q0 73 -17 103t-63 30q-7 0 -26.5 -1t-26.5 -1l-29 70q79 127 226 127q197 0 223 -207q49 109 131.5 163t183.5 54q44 0 82 -10t75.5 -36t64 -66.5
t43.5 -106t18 -150.5l14 -989l-309 -61zM561 1122q5 39 15 102.5t12 78.5q17 124 39 189.5t47.5 86t66.5 20.5q52 0 86.5 -27t34.5 -85q0 -36 -22 -87.5t-82 -166.5q-7 -13 -88 -148z" />
    <glyph glyph-name="iotatonos" unicode="&#x3af;" horiz-adv-x="649" 
d="M397 -31q-120 0 -176.5 69t-62.5 220l-19 696l314 60l30 -23q-41 -605 -41 -696q1 -75 26.5 -103t76.5 -28q37 0 67 12l29 -72q-37 -64 -100.5 -99.5t-143.5 -35.5zM268 1122q5 39 15 102.5t12 78.5q17 124 39.5 189.5t48 86t66.5 20.5q52 0 86 -27t34 -85
q0 -36 -22 -87.5t-82 -166.5q-7 -13 -88 -148z" />
    <glyph glyph-name="upsilondieresistonos" unicode="&#x3b0;" horiz-adv-x="1132" 
d="M154 340q0 67 16 175.5t16 166.5q0 73 -20 104t-64 31q-25 0 -53 -4l-29 70q33 58 95.5 93.5t138.5 35.5q233 0 233 -260q0 -56 -17 -183t-17 -186q0 -131 57.5 -197.5t157.5 -66.5q109 0 172 79.5t63 239.5v68q-92 121 -136 199t-44 145q0 83 42 127.5t107 44.5
q68 0 117 -43q62 -189 62 -447q0 -132 -24 -231.5t-65 -162t-102 -101t-127 -53.5t-149 -15q-198 0 -314 90.5t-116 280.5zM602 1130l-110 29q36 189 43 238q23 134 53 181.5t84 47.5q42 0 70 -24.5t28 -69.5q0 -27 -11.5 -63t-25.5 -68.5t-57 -124.5q-31 -75 -74 -146z
M326 1200q-50 0 -85.5 31.5t-35.5 83.5q0 53 36 86t85 33t84.5 -32.5t35.5 -86.5q0 -52 -35.5 -83.5t-84.5 -31.5zM907 1200q-48 0 -84.5 31.5t-36.5 83.5q0 53 36.5 86t84.5 33q49 0 84 -32.5t35 -86.5q0 -52 -35 -83.5t-84 -31.5z" />
    <glyph glyph-name="alpha" unicode="&#x3b1;" horiz-adv-x="1202" 
d="M369 580q0 -122 15.5 -211.5t43.5 -140.5t63.5 -75t79.5 -24q65 0 105.5 57t44.5 172l12 390q-61 116 -182 116q-81 0 -131.5 -73t-50.5 -211zM475 -31q-82 0 -155 32.5t-131.5 95.5t-93 165.5t-34.5 231.5q0 120 38 221.5t100.5 167.5t140.5 102.5t160 36.5
q168 0 239 -164l11 107l290 47l35 -25q-69 -474 -69 -690q0 -133 86 -133q43 0 73 12l29 -72q-27 -58 -89 -96.5t-136 -38.5q-71 0 -127.5 41t-79.5 113q-93 -154 -287 -154z" />
    <glyph glyph-name="beta" unicode="&#x3b2;" horiz-adv-x="1216" 
d="M444 1143l-8 -850q94 -82 219 -82q101 0 159 63.5t58 171.5q0 48 -15 91.5t-46 82t-89 61t-136 21.5l-27 166q126 34 191 101t65 180q0 115 -50.5 173t-139.5 58q-87 0 -133.5 -59.5t-47.5 -177.5zM119 -360l20 462v795q0 288 138.5 439t375.5 151q199 0 314.5 -91
t115.5 -245q0 -81 -33 -153.5t-111.5 -134.5t-195.5 -91q213 -21 312.5 -119.5t99.5 -277.5q0 -182 -106 -294t-283 -112q-100 0 -181.5 46t-156.5 147l61 -496l-333 -63z" />
    <glyph glyph-name="gamma" unicode="&#x3b3;" horiz-adv-x="1101" 
d="M383 -360l59 311q-70 289 -206 661q-45 120 -71.5 157.5t-78.5 37.5q-30 0 -57 -8l-29 71q90 137 238 140q42 1 73 -5.5t62 -25t55.5 -53.5t50 -91t49.5 -137q66 -208 119 -526q86 183 148 373q-37 126 -49.5 179.5t-12.5 98.5q0 89 43.5 144t118.5 55q68 0 117 -49
q16 -57 16 -125q0 -82 -28.5 -183t-82.5 -214.5t-105 -206.5t-122 -211l21 -367l-293 -63z" />
    <glyph glyph-name="delta" unicode="&#x3b4;" horiz-adv-x="1103" 
d="M61 483q0 166 100 296.5t261 176.5q-124 85 -187 155t-63 149q0 113 103.5 170t289.5 57q153 0 270.5 -50t151.5 -137q-3 -55 -40 -89.5t-103 -34.5q-86 0 -160 71l-141 135q-85 -2 -123.5 -24t-38.5 -72q0 -17 8.5 -35t30.5 -39.5t42 -38.5t61 -44.5t68.5 -45.5
t82.5 -53q132 -83 209.5 -158.5t118 -170t40.5 -216.5q0 -142 -56.5 -258t-169 -187t-261.5 -71q-230 0 -362 142.5t-132 371.5zM369 563q0 -132 29.5 -240.5t80 -170.5t111.5 -62q77 0 118.5 76t41.5 227q0 326 -242 496q-139 -77 -139 -326z" />
    <glyph glyph-name="epsilon" unicode="&#x3b5;" horiz-adv-x="966" 
d="M70 242q0 198 307 243q-128 25 -196 97.5t-68 165.5q0 122 111 198t321 76q136 0 228 -40t118 -112q0 -55 -35.5 -86.5t-93.5 -31.5q-44 0 -77 14t-81 51l-125 94q-43 -14 -69.5 -48.5t-26.5 -84.5q0 -71 54 -114t165 -43q38 0 78 4v-201q-27 4 -78 4q-120 0 -172.5 -32
t-52.5 -95q0 -56 51 -91.5t143 -35.5q82 0 149.5 27t145.5 86l72 -84q-75 -122 -182 -178t-269 -56q-178 0 -297.5 73t-119.5 200z" />
    <glyph glyph-name="zeta" unicode="&#x3b6;" horiz-adv-x="923" 
d="M338 -424l-16 160q360 23 360 139q0 42 -33.5 67.5t-120.5 45.5l-151 35q-149 33 -224 116.5t-75 208.5q0 166 135 382.5t418 516.5l-529 -30v272l750 -19l20 -155q-238 -286 -371.5 -502.5t-133.5 -357.5q0 -85 45 -133t149 -74l98 -25q240 -60 240 -272
q0 -71 -35 -136.5t-102.5 -119t-177 -86t-246.5 -33.5z" />
    <glyph glyph-name="eta" unicode="&#x3b7;" horiz-adv-x="1193" 
d="M737 -362l45 462l11 502q3 117 -33 162t-101 45q-44 0 -93.5 -29.5t-92.5 -81.5l10 -700l-307 -27l-35 35l41 457v221q0 73 -17 103t-63 30q-7 0 -26.5 -1t-26.5 -1l-29 70q79 127 226 127q197 0 223 -207q49 109 131.5 163t183.5 54q44 0 82 -10t75.5 -36t64 -66.5
t43.5 -106t18 -150.5l14 -989l-309 -61z" />
    <glyph glyph-name="theta" unicode="&#x3b8;" horiz-adv-x="1073" 
d="M532 -31q-221 0 -341.5 179t-120.5 548q0 167 24.5 301t67.5 224.5t104 151t132 87.5t153 27q217 0 335 -184t118 -555q0 -205 -35 -357t-99 -243t-148 -135t-190 -44zM530 1372q-44 0 -73 -22.5t-52.5 -82.5t-34.5 -172t-12 -284h355q-9 289 -58 425t-125 136zM547 84
q43 0 71.5 23t51 85.5t33.5 181t12 300.5h-355q7 -307 57.5 -448.5t129.5 -141.5z" />
    <glyph glyph-name="iota" unicode="&#x3b9;" horiz-adv-x="649" 
d="M397 -31q-120 0 -176.5 69t-62.5 220l-19 696l314 60l30 -23q-41 -605 -41 -696q1 -75 26.5 -103t76.5 -28q37 0 67 12l29 -72q-37 -64 -100.5 -99.5t-143.5 -35.5z" />
    <glyph glyph-name="kappa" unicode="&#x3ba;" horiz-adv-x="1153" 
d="M139 6l47 412l2 264q0 71 -19.5 102t-66.5 31q-39 0 -53 -2l-29 70q38 62 98.5 95.5t135.5 33.5q106 0 160.5 -65t54.5 -206v-196q161 257 285 358q119 100 243 121q99 -22 99 -141q0 -150 -232 -166l-137 -10q-42 -40 -104 -113q127 -203 210.5 -286t159.5 -83
q51 0 97 17l26 -62q-26 -85 -84.5 -148t-134.5 -63q-41 0 -73.5 18t-73.5 71.5t-89.5 161.5t-107.5 278q-64 -103 -88 -146q-9 -176 -16 -354l-275 -27z" />
    <glyph glyph-name="lambda" unicode="&#x3bb;" horiz-adv-x="1202" 
d="M748 301l-95 383l-264 -704l-338 18l-20 25l520 1024l-14 45q-24 82 -78.5 112.5t-151.5 30.5q-125 0 -205 -57l-63 96q32 97 108.5 157t169.5 60q106 0 177 -69t122 -224l248 -758q22 -65 50 -109t60.5 -66.5t63.5 -31t68 -8.5q43 0 90 15l27 -62q-23 -82 -79 -145.5
t-128 -63.5q-46 0 -82.5 15t-70.5 51t-62.5 102t-52.5 164z" />
    <glyph glyph-name="nu" unicode="&#x3bd;" horiz-adv-x="1103" 
d="M438 -18q-10 41 -20.5 80t-23 82.5t-21.5 73t-25 79t-23 70.5l-26 78t-25 73q-55 161 -96 226t-82 65q-35 0 -65 -10l-31 69q48 74 117 109t143 35q104 0 176 -90t121 -308q66 -271 88 -458q91 180 154 381q-68 187 -68 297q0 87 42 137.5t110 50.5q50 0 77.5 -11
t53.5 -38q16 -55 16 -125q0 -84 -30.5 -189.5t-89 -225t-111.5 -214t-127 -217.5z" />
    <glyph glyph-name="xi" unicode="&#x3be;" horiz-adv-x="964" 
d="M379 -424l-19 160q171 11 267 47t96 96q0 79 -154 109l-178 37q-144 28 -220.5 110t-76.5 205q0 131 84.5 221.5t257.5 126.5q-140 26 -204 99t-64 167q0 202 285 299l-379 -22v246l835 -11l-10 -198q-455 -19 -455 -230q0 -73 70 -124t207 -50q85 0 102 2v-237
q-39 2 -121 2q-169 0 -251 -54t-82 -149q0 -70 35.5 -109.5t117.5 -56.5l183 -41q67 -15 115 -43.5t73 -66t36 -76t11 -82.5q0 -161 -153 -268.5t-408 -108.5z" />
    <glyph glyph-name="omicron" unicode="&#x3bf;" horiz-adv-x="1122" 
d="M549 -31q-104 0 -192.5 34.5t-154.5 99.5t-103.5 165.5t-37.5 225.5q0 246 142.5 387t369.5 141q223 0 355.5 -133t132.5 -379q0 -250 -144.5 -395.5t-367.5 -145.5zM584 90q170 0 170 311q0 247 -63.5 373.5t-155.5 126.5q-166 0 -166 -321q0 -126 18 -223t49 -154
t68.5 -85t79.5 -28z" />
    <glyph glyph-name="pi" unicode="&#x3c0;" horiz-adv-x="1257" 
d="M41 721l-23 127q82 81 184 117t296 36h694l14 -253l-254 12l21 -436q4 -90 34 -125t93 -35q48 0 78 12l30 -72q-35 -66 -94.5 -100.5t-161.5 -34.5q-121 0 -188.5 68.5t-67.5 200.5q0 148 31 526h-240q-3 -195 -10 -465q-6 -330 -225 -330q-84 0 -135 45.5t-51 110.5
q0 78 49 133q89 17 204 33q29 214 46 471z" />
    <glyph glyph-name="rho" unicode="&#x3c1;" horiz-adv-x="1157" 
d="M420 614l6 -421q85 -74 182 -74q178 0 178 293q0 215 -69.5 352t-149.5 137q-150 0 -147 -287zM106 -360l19 462v396q0 258 122 391t361 133q233 0 360.5 -142.5t127.5 -400.5q0 -103 -26 -190t-68.5 -145t-98.5 -98.5t-114 -58.5t-117 -18q-149 0 -254 121l57 -424
l-332 -63z" />
    <glyph glyph-name="uni03C2" unicode="&#x3c2;" horiz-adv-x="952" 
d="M326 -424l-17 160q361 23 361 135q0 39 -36 67.5t-120 49.5l-125 35q-156 40 -241 146.5t-85 311.5q0 245 142.5 393t398.5 148q199 0 289 -137q0 -72 -36.5 -108t-98.5 -36q-49 0 -86 20t-74 62l-86 97q-88 -34 -136 -129.5t-48 -233.5q0 -134 56 -205.5t169 -103.5
l98 -29q236 -64 236 -268q0 -71 -35.5 -136.5t-103 -119t-177 -86t-245.5 -33.5z" />
    <glyph glyph-name="sigma" unicode="&#x3c3;" horiz-adv-x="1273" 
d="M549 -31q-103 0 -192.5 35t-155 99t-103 160.5t-37.5 213.5q0 254 160.5 386t497.5 141l502 10l12 -242l-395 37q102 -64 157.5 -159t55.5 -204q0 -126 -60.5 -234t-177 -175.5t-264.5 -67.5zM369 539q0 -201 60 -325t155 -124q84 0 129 95t45 245q0 141 -50.5 266.5
t-140.5 177.5q-94 -26 -146 -113t-52 -222z" />
    <glyph glyph-name="tau" unicode="&#x3c4;" horiz-adv-x="997" 
d="M41 721l-23 127q82 81 188 117t304 36h428l14 -253l-356 12l2 -436q0 -89 31.5 -124.5t95.5 -35.5q48 0 78 12l28 -72q-69 -135 -239 -135q-124 0 -197 63.5t-73 200.5q0 90 11.5 191.5t43.5 329.5z" />
    <glyph glyph-name="upsilon" unicode="&#x3c5;" horiz-adv-x="1132" 
d="M154 340q0 67 16 175.5t16 166.5q0 73 -20 104t-64 31q-25 0 -53 -4l-29 70q33 58 95.5 93.5t138.5 35.5q233 0 233 -260q0 -56 -17 -183t-17 -186q0 -131 57.5 -197.5t157.5 -66.5q109 0 172 79.5t63 239.5v68q-92 121 -136 199t-44 145q0 83 42 127.5t107 44.5
q68 0 117 -43q62 -189 62 -447q0 -132 -24 -231.5t-65 -162t-102 -101t-127 -53.5t-149 -15q-198 0 -314 90.5t-116 280.5z" />
    <glyph glyph-name="phi" unicode="&#x3c6;" horiz-adv-x="1542" 
d="M365 496q0 -177 65.5 -283t212.5 -133l23 827q-301 -44 -301 -411zM1176 473q0 189 -73.5 300t-211.5 134l18 -831q134 22 200.5 119t66.5 278zM612 -387l23 348q-574 38 -574 514q0 247 151.5 388.5t455.5 158.5l8 276h207l6 -276q306 -13 449 -145.5t143 -376.5
q0 -234 -141 -377t-427 -164l17 -324l-283 -53z" />
    <glyph glyph-name="chi" unicode="&#x3c7;" horiz-adv-x="1118" 
d="M45 791l-35 90q93 135 226 135q102 0 165.5 -66.5t100.5 -193.5l61 -207l221 461l285 -15l27 -34l-418 -732l41 -108q54 -164 128.5 -235.5t178.5 -71.5q22 0 90 10l25 -105q-76 -131 -195 -131q-107 0 -178.5 72.5t-108.5 230.5l-51 205l-237 -497l-295 14l-25 31
l441 768l-39 102q-46 153 -116.5 224t-176.5 71q-66 0 -115 -18z" />
    <glyph glyph-name="psi" unicode="&#x3c8;" horiz-adv-x="1576" 
d="M702 -383l25 354q-551 23 -551 383q0 70 5 171t5 157q0 74 -21 104.5t-71 30.5q-21 0 -45 -4l-29 70q33 58 97 93.5t141 35.5q229 0 229 -269q0 -55 -8 -181t-8 -187q0 -235 260 -269l19 1172h223l22 -1167q154 23 228 103t96 241q-127 251 -127 376q0 87 50 138t118 51
q48 0 83 -20.5t52 -49.5q10 -80 10 -211q-6 -353 -124 -534.5t-382 -222.5l7 -336l-269 -62z" />
    <glyph glyph-name="omega" unicode="&#x3c9;" horiz-adv-x="1568" 
d="M475 -31q-172 0 -293 132t-121 343q0 271 142 414t401 162l17 -86q-141 -48 -204 -155t-63 -279q0 -182 58.5 -268.5t136.5 -86.5q57 0 88 50t31 151q0 58 -10 193t-11 213l248 39l33 -21q-3 -49 -17 -205.5t-14 -222.5q0 -92 32 -144.5t91 -52.5q92 0 143 94.5t51 256.5
q0 168 -67 277.5t-215 160.5l12 86q272 -12 417.5 -153t145.5 -421q0 -206 -121 -341.5t-305 -135.5q-122 0 -195.5 63.5t-103.5 203.5q-30 -138 -106.5 -202.5t-200.5 -64.5z" />
    <glyph glyph-name="iotadieresis" unicode="&#x3ca;" horiz-adv-x="649" 
d="M397 -31q-120 0 -176.5 69t-62.5 220l-19 696l314 60l30 -23q-41 -605 -41 -696q1 -75 26.5 -103t76.5 -28q37 0 67 12l29 -72q-37 -64 -100.5 -99.5t-143.5 -35.5zM571 1178q-65 0 -111 40.5t-46 108.5q0 67 46.5 108.5t110.5 41.5q65 0 111.5 -41.5t46.5 -108.5
q0 -68 -46 -108.5t-112 -40.5zM80 1178q-65 0 -111.5 40.5t-46.5 108.5q0 67 47 108.5t111 41.5q66 0 112 -41.5t46 -108.5q0 -68 -45.5 -108.5t-112.5 -40.5z" />
    <glyph glyph-name="upsilondieresis" unicode="&#x3cb;" horiz-adv-x="1132" 
d="M154 340q0 67 16 175.5t16 166.5q0 73 -20 104t-64 31q-25 0 -53 -4l-29 70q33 58 95.5 93.5t138.5 35.5q233 0 233 -260q0 -56 -17 -183t-17 -186q0 -131 57.5 -197.5t157.5 -66.5q109 0 172 79.5t63 239.5v68q-92 121 -136 199t-44 145q0 83 42 127.5t107 44.5
q68 0 117 -43q62 -189 62 -447q0 -132 -24 -231.5t-65 -162t-102 -101t-127 -53.5t-149 -15q-198 0 -314 90.5t-116 280.5zM313 1178q-65 0 -111 40.5t-46 108.5q0 67 46.5 108.5t110.5 41.5q66 0 112 -41.5t46 -108.5q0 -68 -45.5 -108.5t-112.5 -40.5zM805 1178
q-65 0 -111.5 40.5t-46.5 108.5q0 67 47 108.5t111 41.5q65 0 111.5 -41.5t46.5 -108.5q0 -68 -46 -108.5t-112 -40.5z" />
    <glyph glyph-name="omicrontonos" unicode="&#x3cc;" horiz-adv-x="1122" 
d="M549 -31q-104 0 -192.5 34.5t-154.5 99.5t-103.5 165.5t-37.5 225.5q0 246 142.5 387t369.5 141q223 0 355.5 -133t132.5 -379q0 -250 -144.5 -395.5t-367.5 -145.5zM584 90q170 0 170 311q0 247 -63.5 373.5t-155.5 126.5q-166 0 -166 -321q0 -126 18 -223t49 -154
t68.5 -85t79.5 -28zM510 1122q5 39 15 102.5t12 78.5q17 124 39 189.5t47.5 86t66.5 20.5q52 0 86.5 -27t34.5 -85q0 -36 -22 -87.5t-82 -166.5q-9 -16 -23 -40t-34 -56.5t-32 -51.5z" />
    <glyph glyph-name="upsilontonos" unicode="&#x3cd;" horiz-adv-x="1132" 
d="M154 340q0 67 16 175.5t16 166.5q0 73 -20 104t-64 31q-25 0 -53 -4l-29 70q33 58 95.5 93.5t138.5 35.5q233 0 233 -260q0 -56 -17 -183t-17 -186q0 -131 57.5 -197.5t157.5 -66.5q109 0 172 79.5t63 239.5v68q-92 121 -136 199t-44 145q0 83 42 127.5t107 44.5
q68 0 117 -43q62 -189 62 -447q0 -132 -24 -231.5t-65 -162t-102 -101t-127 -53.5t-149 -15q-198 0 -314 90.5t-116 280.5zM506 1122q5 39 14.5 103.5t11.5 77.5q17 124 39.5 189.5t48 86t66.5 20.5q52 0 86.5 -27t34.5 -85q0 -36 -22 -86.5t-83 -167.5q-7 -13 -88 -148z
" />
    <glyph glyph-name="omegatonos" unicode="&#x3ce;" horiz-adv-x="1568" 
d="M475 -31q-172 0 -293 132t-121 343q0 271 142 414t401 162l17 -86q-141 -48 -204 -155t-63 -279q0 -182 58.5 -268.5t136.5 -86.5q57 0 88 50t31 151q0 58 -10 193t-11 213l248 39l33 -21q-3 -49 -17 -205.5t-14 -222.5q0 -92 32 -144.5t91 -52.5q92 0 143 94.5t51 256.5
q0 168 -67 277.5t-215 160.5l12 86q272 -12 417.5 -153t145.5 -421q0 -206 -121 -341.5t-305 -135.5q-122 0 -195.5 63.5t-103.5 203.5q-30 -138 -106.5 -202.5t-200.5 -64.5zM748 1122q5 39 14.5 103.5t11.5 77.5q17 124 39.5 189.5t48 86t66.5 20.5q52 0 86.5 -27
t34.5 -85q0 -36 -22 -86.5t-83 -167.5q-7 -13 -88 -148z" />
    <glyph glyph-name="uni03D7" unicode="&#x3d7;" horiz-adv-x="1433" 
d="M342 -29l-35 35l47 412l2 264q0 71 -19.5 102t-66.5 31q-39 0 -53 -2l-29 70q38 62 98.5 95.5t135.5 33.5q215 0 215 -271q0 -128 -2 -198q158 252 287 360q119 100 243 121q99 -22 99 -141q0 -150 -232 -166l-135 -10q-54 -54 -106 -115q120 -190 229.5 -280.5
t196.5 -90.5q45 0 92 15l26 -62q-116 -328 -295 -484.5t-444 -156.5q-140 0 -250.5 40t-180.5 111.5t-106 167.5t-36 211l88 19q111 -307 507 -307q142 0 272.5 49.5t231.5 144.5q-114 6 -210.5 126.5t-188.5 404.5q-21 -33 -92 -150q-2 -45 -8 -173.5t-7 -178.5z" />
    <glyph glyph-name="uni03D9" unicode="&#x3d9;" horiz-adv-x="1114" 
d="M584 90q170 0 170 311q0 247 -63.5 373.5t-155.5 126.5q-166 0 -166 -321q0 -126 18 -223t49 -154t68.5 -85t79.5 -28zM750 -334l-281 -63l-37 37l27 335q-180 29 -289 163t-109 356q0 246 142.5 387t369.5 141q223 0 355.5 -133t132.5 -379q0 -202 -96 -337.5
t-258 -182.5z" />
    <glyph glyph-name="uni03DB" unicode="&#x3db;" horiz-adv-x="991" 
d="M330 -424l-17 160q361 23 361 135q0 39 -35 67t-119 50l-114 30q-162 40 -249 144t-87 305q0 460 428 510l172 18q76 7 106.5 37.5t52.5 95.5l29 84l125 -18l-29 -119q-28 -116 -55 -184.5t-69 -109.5t-92 -56t-132 -20l-127 -9q-139 -10 -196.5 -59t-57.5 -141
q0 -80 45 -124t172 -83l217 -70q123 -38 177.5 -104t54.5 -162q0 -72 -35 -138t-102.5 -119.5t-177 -86t-246.5 -33.5z" />
    <glyph glyph-name="uni03DD" unicode="&#x3dd;" horiz-adv-x="948" 
d="M119 -360l59 606l-47 719l778 34v-163l-456 28q-16 -390 -17 -436l418 6v-164l-422 31v-90l25 -545l-301 -63z" />
    <glyph glyph-name="uni03E1" unicode="&#x3e1;" horiz-adv-x="1234" 
d="M745 -328q32 85 56 224t24 305q0 84 -8 149l-526 -239l-78 221l580 164q-36 161 -105 297l-553 -234l-67 221l546 144q-199 304 -524 458l43 105q149 -9 291.5 -63.5t265 -151t215.5 -224.5t146 -294.5t53 -350.5q0 -249 -69.5 -449t-170.5 -325z" />
    <glyph glyph-name="uni0400" unicode="&#x400;" horiz-adv-x="1218" 
d="M225 635v76q0 340 -4 508l-153 16v111h1044l14 -353h-170l-41 238h-342q-4 -156 -4 -475h222l24 159h119v-440h-119l-24 160h-222q0 -354 4 -520h383l41 237h170l-14 -352h-1085v111l153 16q4 166 4 508zM764 1503l-57 -80q-46 20 -152.5 66.5t-163.5 71.5
q-119 55 -119 137q0 41 32.5 72.5t80.5 31.5q36 0 69.5 -18t82.5 -64q180 -170 227 -217z" />
    <glyph glyph-name="uni0401" unicode="&#x401;" horiz-adv-x="1218" 
d="M225 635v76q0 340 -4 508l-153 16v111h1044l14 -353h-170l-41 238h-342q-4 -156 -4 -475h222l24 159h119v-440h-119l-24 160h-222q0 -354 4 -520h383l41 237h170l-14 -352h-1085v111l153 16q4 166 4 508zM381 1460q-61 0 -105.5 39t-44.5 103t44.5 102.5t105.5 38.5
q64 0 107.5 -38.5t43.5 -102.5t-43.5 -103t-107.5 -39zM891 1460q-61 0 -105.5 39t-44.5 103t44.5 102.5t105.5 38.5q64 0 107.5 -38.5t43.5 -102.5t-43.5 -103t-107.5 -39z" />
    <glyph glyph-name="uni0402" unicode="&#x402;" horiz-adv-x="1486" 
d="M41 965l8 381h1188l6 -351h-170l-35 236h-254q-4 -145 -4 -430q79 6 160 6q107 0 194 -24.5t146 -67t98.5 -101.5t57.5 -126t18 -142q0 -67 -15.5 -128.5t-54.5 -124t-99 -109.5t-157 -79.5t-221 -39.5l-24 98q109 26 171 122.5t62 240.5q0 185 -66.5 273.5t-209.5 88.5
q-42 0 -60 -2v-49q0 -426 6 -637h-522v111l174 18q4 166 4 506v76q0 346 -4 520h-188l-39 -266h-170z" />
    <glyph glyph-name="uni0403" unicode="&#x403;" horiz-adv-x="1175" 
d="M68 1235v111h1046l14 -408h-167l-48 293h-340q-4 -170 -4 -520v-107q0 -307 4 -475l183 -18v-111h-688v111l153 16q4 166 4 475v109q0 340 -4 508zM514 1503q82 80 227 217q49 46 82.5 64t69.5 18q48 0 80.5 -31.5t32.5 -72.5q0 -81 -117 -133q-60 -28 -169.5 -76
t-148.5 -66z" />
    <glyph glyph-name="uni0404" unicode="&#x404;" horiz-adv-x="1245" 
d="M758 -39q-154 0 -280.5 44.5t-220 131.5t-145 224t-51.5 313q0 142 36 259t99 200t151 140t191.5 84t219.5 27q220 0 405 -102l8 -317h-159l-58 270q-73 33 -166 33q-69 0 -122.5 -13.5t-101 -49t-79 -94t-51.5 -150.5t-24 -216h301l24 162h119v-448h-119l-24 166h-303
q3 -131 22 -227t50 -157t80 -97t104.5 -50t130.5 -14q88 0 178 35l55 266h152l-9 -315q-194 -105 -413 -105z" />
    <glyph glyph-name="uni0405" unicode="&#x405;" horiz-adv-x="1107" 
d="M512 84q107 0 166 54.5t59 140.5q0 79 -40 124.5t-136 88.5l-88 38q-193 89 -286 193t-93 266q0 183 137.5 289t370.5 106q110 0 212 -27.5t175 -76.5l-16 -287h-189l-39 242q-73 27 -137 27q-90 0 -150.5 -52t-60.5 -135q0 -78 45 -126.5t142 -92.5l96 -43
q200 -91 284.5 -188.5t84.5 -249.5q0 -187 -139.5 -300.5t-395.5 -113.5q-121 0 -240.5 28t-203.5 81l12 303h190l41 -252q90 -37 199 -37z" />
    <glyph glyph-name="uni0406" unicode="&#x406;" horiz-adv-x="794" 
d="M225 635v76q0 340 -4 508l-153 16v111h659v-111l-154 -16q-4 -166 -4 -508v-74q0 -342 4 -510l154 -16v-111h-659v111l153 16q4 166 4 508z" />
    <glyph glyph-name="uni0407" unicode="&#x407;" horiz-adv-x="794" 
d="M225 635v76q0 340 -4 508l-153 16v111h659v-111l-154 -16q-4 -166 -4 -508v-74q0 -342 4 -510l154 -16v-111h-659v111l153 16q4 166 4 508zM141 1460q-61 0 -105 39t-44 103t44 102.5t105 38.5q64 0 108 -38.5t44 -102.5t-44 -103t-108 -39zM651 1460q-61 0 -105 39
t-44 103t44 102.5t105 38.5q64 0 108 -38.5t44 -102.5t-44 -103t-108 -39z" />
    <glyph glyph-name="uni0408" unicode="&#x408;" horiz-adv-x="808" 
d="M72 1235v111h682v-111l-158 -16q-2 -160 -2 -490v-213q0 -214 -21.5 -355.5t-70.5 -238.5q-59 -132 -173.5 -204t-256.5 -72q-177 0 -246 129q1 69 47 110t115 41q51 0 94 -26.5t92 -85.5l43 -52q45 83 45 314q0 83 -2 226t-6.5 406.5t-7.5 508.5z" />
    <glyph glyph-name="uni0409" unicode="&#x409;" horiz-adv-x="1904" 
d="M1229 637q0 -346 4 -518h35q133 0 200.5 75t67.5 220q0 147 -66 219t-210 72h-31v-68zM10 170q49 111 176 111q73 0 140 -48q48 88 75 193q52 187 79.5 369.5t39.5 414.5l-184 25v111h1046v-111l-149 -16q-4 -141 -4 -400q82 4 129 4q134 0 235.5 -32.5t161.5 -89
t89.5 -126.5t29.5 -151q0 -424 -596 -424h-549v111l152 16q4 166 4 508v76q0 342 -4 514h-238q-15 -268 -38.5 -460t-69.5 -372q-57 -222 -136 -324t-196 -102q-193 0 -193 203z" />
    <glyph glyph-name="uni040A" unicode="&#x40a;" horiz-adv-x="1990" 
d="M1315 637q0 -346 4 -518h27q130 0 202 76t72 217q0 143 -63.5 212.5t-202.5 69.5h-39v-57zM829 1235v111h652v-111l-162 -16q-4 -141 -4 -410q90 4 137 4q131 0 231 -31.5t158.5 -86.5t87.5 -123t29 -148q0 -65 -15 -121.5t-56.5 -114t-107 -97.5t-174 -65.5
t-249.5 -25.5h-527v111l138 14q4 168 4 522v33h-406v-33q0 -352 4 -522l136 -14v-111h-637v111l149 16q4 166 4 508v76q0 338 -4 508l-149 16v111h637v-111l-136 -14q-4 -139 -4 -422h406q0 281 -4 420z" />
    <glyph glyph-name="uni040B" unicode="&#x40b;" horiz-adv-x="1638" 
d="M41 965l8 381h1223l6 -351h-170l-35 236h-248q-4 -147 -4 -416q101 8 232 8q229 0 335.5 -98.5t106.5 -323.5v-276l107 -14v-111h-443q6 212 6 401q0 159 -49.5 232.5t-173.5 73.5q-82 0 -121 -2v-68q0 -340 4 -510l164 -16v-111h-690v111l174 18q4 166 4 506v76
q0 346 -4 520h-223l-39 -266h-170z" />
    <glyph glyph-name="uni040C" unicode="&#x40c;" horiz-adv-x="1427" 
d="M645 1503q82 80 227 217q49 46 82.5 64t69.5 18q48 0 80.5 -31.5t32.5 -72.5q0 -81 -117 -133q-60 -28 -169.5 -76t-148.5 -66zM909 172l-71 305q-33 146 -197 146h-72q0 -338 4 -498l144 -14v-111h-649v111l153 16q4 166 4 508v76q0 338 -4 508l-153 16v111h649v-111
l-144 -14q-4 -168 -4 -486h56q49 0 82 9t65 36.5t58.5 79t54.5 135.5q63 191 130 281t154 108q89 -1 135 -41.5t46 -115.5q0 -69 -52 -112.5t-153 -43.5q-51 0 -96 10q-36 -69 -60 -139q-38 -106 -81.5 -166.5t-106.5 -89.5q184 -22 279.5 -100.5t127.5 -235.5l54 -227
l157 -12v-111q-101 -29 -215 -29q-134 0 -202 40.5t-93 160.5z" />
    <glyph glyph-name="uni040D" unicode="&#x40d;" horiz-adv-x="1595" 
d="M883 1235v111h647v-111l-152 -16q-4 -166 -4 -508v-76q0 -340 4 -508l152 -16v-111h-647v111l151 16q4 166 4 520l6 268l-497 -692l-2 -96l168 -16v-111h-645v111l149 16q4 166 4 508v76q0 338 -4 508l-149 16v111h645v-111l-152 -16q-4 -166 -4 -508l-6 -283l498 696
l4 93zM926 1503l-58 -80q-45 20 -151.5 66.5t-163.5 71.5q-119 55 -119 137q0 41 32.5 72.5t80.5 31.5q36 0 69 -17.5t82 -64.5q198 -187 228 -217z" />
    <glyph glyph-name="uni040E" unicode="&#x40e;" horiz-adv-x="1286" 
d="M16 1235v111h650v-111l-154 -16l258 -580l221 575l-141 21v111h424v-111l-137 -21l-365 -858q-83 -201 -172 -298t-221 -97q-94 0 -149.5 49.5t-55.5 159.5q24 42 64.5 71t95.5 29q103 0 203 -106q43 46 79 110l-479 949zM764 1444q-167 0 -275 77.5t-108 219.5
q35 78 111 78q52 0 87 -42t35 -139q0 -32 -6 -67q87 -23 156 -23t156 23q-7 40 -7 67q0 97 35.5 139t87.5 42q76 0 111 -78q0 -142 -108 -219.5t-275 -77.5z" />
    <glyph glyph-name="uni040F" unicode="&#x40f;" horiz-adv-x="1536" 
d="M829 1235v111h639v-111l-149 -16q-4 -168 -4 -508v-76q0 -342 4 -508l149 -16v-111h-585l-33 -432h-162l-33 432h-587v111l149 16q4 168 4 508v76q0 342 -4 508l-149 16v111h637v-111l-136 -14q-4 -170 -4 -512v-74q0 -346 4 -514h398q4 172 4 514v74q0 344 -4 512z" />
    <glyph glyph-name="uni0410" unicode="&#x410;" horiz-adv-x="1382" 
d="M594 1032l-170 -522h336zM18 0v111l166 24l416 1213h211l420 -1227l125 -15v-106h-633v106l158 21l-84 264h-412l-82 -256l156 -24v-111h-441z" />
    <glyph glyph-name="uni0411" unicode="&#x411;" horiz-adv-x="1277" 
d="M63 1235v111h1049l6 -381h-164l-47 266h-344q-4 -150 -4 -430q79 6 164 6q133 0 234.5 -32t161 -87t89 -123.5t29.5 -148.5q0 -64 -15 -120t-56.5 -112t-107 -95.5t-174.5 -64t-251 -24.5h-570v111l154 16q4 168 4 516v59q0 345 -4 517zM559 643q0 -350 4 -524h60
q132 0 204 72.5t72 216.5q0 141 -65.5 210.5t-210.5 69.5q-44 0 -64 -2v-43z" />
    <glyph glyph-name="uni0412" unicode="&#x412;" horiz-adv-x="1333" 
d="M225 643v59q0 345 -4 517l-153 16v111h661q247 0 362 -86.5t115 -231.5q0 -114 -79.5 -193t-268.5 -114q428 -52 428 -344q0 -55 -16.5 -105t-61 -101t-113.5 -87.5t-183.5 -60t-260.5 -23.5h-583v111l153 16q4 168 4 516zM633 649h-70q0 -362 4 -530h66
q144 0 222.5 66.5t78.5 195.5q0 139 -74 203.5t-227 64.5zM639 1227h-72q-4 -154 -4 -469h58q253 0 253 246q0 114 -57.5 168.5t-177.5 54.5z" />
    <glyph glyph-name="uni0413" unicode="&#x413;" horiz-adv-x="1175" 
d="M68 1235v111h1046l14 -408h-167l-48 293h-340q-4 -170 -4 -520v-107q0 -307 4 -475l183 -18v-111h-688v111l153 16q4 166 4 475v109q0 340 -4 508z" />
    <glyph glyph-name="uni0414" unicode="&#x414;" horiz-adv-x="1464" 
d="M877 709q0 306 -5 516h-239q-27 -373 -113 -655t-209 -449h561q5 215 5 514v74zM127 121q151 154 248.5 426.5t124.5 662.5l-174 25v111h1048v-111l-151 -16q-4 -168 -4 -508v-76q0 -346 4 -514h202l-6 -504h-159l-56 383h-975l-57 -383h-158l-6 504h119z" />
    <glyph glyph-name="uni0415" unicode="&#x415;" horiz-adv-x="1218" 
d="M225 635v76q0 340 -4 508l-153 16v111h1044l14 -353h-170l-41 238h-342q-4 -156 -4 -475h222l24 159h119v-440h-119l-24 160h-222q0 -354 4 -520h383l41 237h170l-14 -352h-1085v111l153 16q4 166 4 508z" />
    <glyph glyph-name="uni0416" unicode="&#x416;" horiz-adv-x="1998" 
d="M1479 172l-70 305q-36 146 -197 146h-55q0 -338 4 -496l152 -16v-111h-627v111l152 16q4 168 4 496h-56q-160 0 -196 -146l-70 -305q-26 -120 -94 -160.5t-203 -40.5q-114 0 -215 29v111l158 12l55 227q33 154 127 233.5t279 102.5q-65 29 -109.5 89.5t-81.5 166.5
q-23 64 -57 137q-58 -10 -98 -10q-99 0 -150 46.5t-51 111.5q0 154 182 157q84 -19 151 -109t130 -280q28 -85 55.5 -137.5t60 -79t64 -35t80.5 -8.5h39q0 328 -4 484l-152 16v111h627v-111l-152 -16q-4 -168 -4 -484h39q49 0 82 9t66 35.5t60 79t52 136.5
q59 188 127.5 278.5t153.5 110.5q182 -3 182 -157q0 -65 -52 -111.5t-155 -46.5q-50 0 -94 8q-28 -60 -55 -135q-37 -106 -81.5 -166.5t-109.5 -89.5q185 -23 279 -102.5t127 -233.5l55 -227l158 -12v-111q-101 -29 -215 -29q-135 0 -203 40.5t-94 160.5z" />
    <glyph glyph-name="uni0417" unicode="&#x417;" horiz-adv-x="1148" 
d="M1100 365q0 -177 -153.5 -290.5t-416.5 -113.5q-233 0 -354 89.5t-129 256.5q19 45 54 68.5t75 23.5q66 0 103 -41t51 -143l16 -131q46 -6 92 -6q299 0 299 293q0 266 -278 266h-84v119h57q297 0 297 241q0 132 -75.5 201.5t-198.5 69.5q-47 0 -93 -6l-38 -267h-189
l-16 305q158 84 442 84q227 0 360.5 -98t133.5 -254q0 -52 -17 -97.5t-54 -88t-105 -75.5t-162 -52q203 -30 293 -119.5t90 -234.5z" />
    <glyph glyph-name="uni0418" unicode="&#x418;" horiz-adv-x="1595" 
d="M883 1235v111h647v-111l-152 -16q-4 -166 -4 -508v-76q0 -340 4 -508l152 -16v-111h-647v111l151 16q4 166 4 520l6 268l-497 -692l-2 -96l168 -16v-111h-645v111l149 16q4 166 4 508v76q0 338 -4 508l-149 16v111h645v-111l-152 -16q-4 -166 -4 -508l-6 -283l498 696
l4 93z" />
    <glyph glyph-name="uni0419" unicode="&#x419;" horiz-adv-x="1595" 
d="M883 1235v111h647v-111l-152 -16q-4 -166 -4 -508v-76q0 -340 4 -508l152 -16v-111h-647v111l151 16q4 166 4 520l6 268l-497 -692l-2 -96l168 -16v-111h-645v111l149 16q4 166 4 508v76q0 338 -4 508l-149 16v111h645v-111l-152 -16q-4 -166 -4 -508l-6 -283l498 696
l4 93zM799 1444q-167 0 -275 77.5t-108 219.5q35 78 110 78q52 0 87.5 -42t35.5 -139q0 -32 -6 -67q87 -23 156 -23q68 0 155 23q-6 34 -6 67q0 97 35.5 139t87.5 42q76 0 111 -78q0 -142 -108 -219.5t-275 -77.5z" />
    <glyph glyph-name="uni041A" unicode="&#x41a;" horiz-adv-x="1427" 
d="M909 172l-71 305q-33 146 -197 146h-72q0 -338 4 -498l144 -14v-111h-649v111l153 16q4 166 4 508v76q0 338 -4 508l-153 16v111h649v-111l-144 -14q-4 -168 -4 -486h56q49 0 82 9t65 36.5t58.5 79t54.5 135.5q63 191 130 281t154 108q89 -1 135 -41.5t46 -115.5
q0 -69 -52 -112.5t-153 -43.5q-51 0 -96 10q-36 -69 -60 -139q-38 -106 -81.5 -166.5t-106.5 -89.5q184 -22 279.5 -100.5t127.5 -235.5l54 -227l157 -12v-111q-101 -29 -215 -29q-134 0 -202 40.5t-93 160.5z" />
    <glyph glyph-name="uni041B" unicode="&#x41b;" horiz-adv-x="1449" 
d="M10 170q49 111 176 111q73 0 140 -48q48 88 75 193q52 187 79.5 369.5t39.5 414.5l-184 25v111h1046v-111l-149 -16q-4 -168 -4 -508v-76q0 -340 4 -508l149 -16v-111h-655v111l154 16q4 168 4 510v74q0 344 -4 514h-238q-15 -268 -38.5 -460t-69.5 -372
q-57 -222 -136 -324t-194 -102q-93 0 -144 49.5t-51 153.5z" />
    <glyph glyph-name="uni041C" unicode="&#x41c;" horiz-adv-x="1835" 
d="M37 0v111l199 24v1079l-181 21v111h541l334 -902l313 902h518v-111l-145 -16q-4 -168 -4 -508v-76q0 -340 4 -508l151 -16v-111h-653v111l150 18q2 94 2.5 255t1.5 208l4 452l-365 -1044h-157l-392 1047l11 -410v-500l168 -26v-111h-500z" />
    <glyph glyph-name="uni041D" unicode="&#x41d;" horiz-adv-x="1566" 
d="M221 635v76q0 338 -4 508l-149 16v111h645v-111l-144 -14q-4 -168 -4 -469h436q0 313 -4 469l-143 14v111h647v-111l-151 -16q-4 -166 -4 -508v-76q0 -340 4 -508l151 -16v-111h-647v111l143 14q4 168 4 506h-436q0 -344 4 -506l144 -14v-111h-645v111l149 16
q4 166 4 508z" />
    <glyph glyph-name="uni041E" unicode="&#x41e;" horiz-adv-x="1437" 
d="M432 674q0 -131 16.5 -237t50 -187t89.5 -125.5t131 -44.5q76 0 132 44.5t89.5 126t49.5 187t16 236.5t-16 236t-49.5 186t-89.5 125.5t-132 44.5q-99 0 -165 -79t-94 -208t-28 -305zM719 1384q102 0 196.5 -27.5t177 -85.5t143.5 -140.5t96.5 -200t35.5 -256.5
q0 -172 -53.5 -310t-144.5 -224.5t-206.5 -132.5t-244.5 -46t-244.5 45t-206.5 131t-144.5 224.5t-53.5 312.5q0 171 54 308.5t145 224t206.5 132t243.5 45.5z" />
    <glyph glyph-name="uni041F" unicode="&#x41f;" horiz-adv-x="1544" 
d="M68 0v111l149 16q4 166 4 508v76q0 340 -4 508l-149 16v111h1411v-111l-152 -16q-4 -166 -4 -508v-76q0 -340 4 -508l152 -16v-111h-648v111l144 14q4 168 4 512v74q0 344 -4 516h-406q-4 -170 -4 -516v-74q0 -342 4 -512l144 -14v-111h-645z" />
    <glyph glyph-name="uni0420" unicode="&#x420;" horiz-adv-x="1255" 
d="M225 635v76q0 340 -4 508l-153 16v111h557q308 0 452 -106.5t144 -299.5q0 -72 -19 -134t-63 -116.5t-111 -93t-169 -60.5t-232 -22h-58q0 -248 4 -385l183 -18v-111h-688v111l153 16q4 166 4 508zM621 1227h-48q-4 -170 -4 -516v-82h60q132 0 201 84.5t69 228.5
q0 140 -71.5 212.5t-206.5 72.5z" />
    <glyph glyph-name="uni0421" unicode="&#x421;" horiz-adv-x="1273" 
d="M834 80q83 0 172 39l57 262h156l-9 -315q-198 -105 -430 -105q-150 0 -278 45t-225 131.5t-152 224t-55 312.5q0 141 38.5 259t106 200t159.5 139.5t198 84.5t223 27q217 0 401 -102l8 -317h-155l-60 268q-69 35 -147 35q-84 0 -156 -35t-130 -105t-91 -187t-33 -269
t32 -268t88 -185.5t127 -104t155 -34.5z" />
    <glyph glyph-name="uni0422" unicode="&#x422;" horiz-adv-x="1298" 
d="M477 635v76q0 346 -4 520h-223l-39 -266h-170l8 381h1202l6 -381h-170l-36 266h-226q-4 -170 -4 -520v-74q0 -340 4 -508l176 -18v-111h-702v111l174 18q4 166 4 506z" />
    <glyph glyph-name="uni0423" unicode="&#x423;" horiz-adv-x="1286" 
d="M16 1235v111h650v-111l-154 -16l258 -580l221 575l-141 21v111h424v-111l-137 -21l-365 -858q-83 -201 -172 -298t-221 -97q-94 0 -149.5 49.5t-55.5 159.5q24 42 64.5 71t95.5 29q103 0 203 -106q43 46 79 110l-479 949z" />
    <glyph glyph-name="uni0424" unicode="&#x424;" horiz-adv-x="1568" 
d="M461 1257v111h647v-111l-166 -16q-2 -37 -2 -113h27q283 0 426 -122.5t143 -331.5q0 -102 -36 -187t-105.5 -147.5t-178.5 -97.5t-249 -35h-27q0 -68 2 -101l166 -18v-111h-647v111l164 18q2 33 2 101h-27q-276 0 -421.5 127t-145.5 338t142 333.5t425 122.5h27
q0 74 -2 113zM618 315h11v301v107v299h-11q-72 0 -125 -28.5t-82.5 -79t-43 -111.5t-13.5 -135q0 -71 13.5 -131t42.5 -111.5t82.5 -81t125.5 -29.5zM938 618v-303h12q71 0 124 30.5t82 82.5t42.5 111.5t13.5 128.5q0 74 -13.5 134.5t-42.5 111.5t-81.5 79.5t-124.5 28.5
h-12v-299v-105z" />
    <glyph glyph-name="uni0425" unicode="&#x425;" horiz-adv-x="1339" 
d="M23 1235v111h641v-111l-123 -14l202 -349l213 353l-127 10v111h428v-111l-153 -12l-297 -459l373 -639l145 -14v-111h-674v111l150 16l-228 391l-251 -397l129 -10v-111h-437v111l160 14l336 502l-346 592z" />
    <glyph glyph-name="uni0426" unicode="&#x426;" horiz-adv-x="1564" 
d="M829 1235v111h639v-111l-149 -16q-4 -168 -4 -508v-76q0 -346 4 -514h199l-21 -504h-158l-45 383h-1226v111l149 16q4 168 4 508v76q0 342 -4 508l-149 16v111h637v-111l-136 -14q-4 -170 -4 -512v-74q0 -346 4 -514h398q4 172 4 514v74q0 344 -4 512z" />
    <glyph glyph-name="uni0427" unicode="&#x427;" horiz-adv-x="1468" 
d="M756 1235v111h645v-111l-156 -16q-4 -166 -4 -508v-74q0 -342 4 -510l156 -16v-111h-676v111l168 16q4 143 4 424q-135 -27 -276 -27q-94 0 -161 11t-126.5 41.5t-95 83t-56 136t-20.5 199.5v226l-133 14v111h635v-111l-160 -16q-2 -90 -2 -252q0 -99 10.5 -158.5t39 -94
t70.5 -46t113 -11.5q61 0 162 11v43q0 340 -4 510z" />
    <glyph glyph-name="uni0428" unicode="&#x428;" horiz-adv-x="2174" 
d="M1477 1235v111h632v-111l-151 -16q-4 -166 -4 -508v-76q0 -340 4 -508l151 -16v-111h-2043v111l151 16q4 168 4 508v76q0 342 -4 508l-151 16v111h634v-111l-131 -14q-4 -170 -4 -512v-74q0 -346 4 -514h346q5 213 5 514v74q0 302 -5 512l-131 14v111h607v-111l-129 -14
q-5 -210 -5 -510v-76q0 -301 5 -514h344q4 168 4 514v74q0 342 -4 512z" />
    <glyph glyph-name="uni0429" unicode="&#x429;" horiz-adv-x="2205" 
d="M1477 1235v111h632v-111l-151 -16q-4 -170 -4 -508v-76q0 -346 4 -514h201l-21 -504h-160l-45 383h-1867v111l151 16q4 168 4 508v76q0 342 -4 508l-151 16v111h634v-111l-131 -14q-4 -170 -4 -512v-74q0 -346 4 -514h346q5 213 5 514v74q0 302 -5 512l-131 14v111h607
v-111l-129 -14q-5 -210 -5 -510v-76q0 -301 5 -514h344q4 172 4 514v74q0 344 -4 512z" />
    <glyph glyph-name="uni042A" unicode="&#x42a;" horiz-adv-x="1542" 
d="M41 965l6 381h957v-111l-158 -16q-4 -139 -4 -400q98 4 151 4q131 0 232.5 -32.5t162 -88.5t91 -127t30.5 -153q0 -66 -16 -123.5t-58 -114t-108 -96t-174 -64t-248 -24.5h-563v111l152 16q4 166 4 508v76q0 346 -4 520h-246l-37 -266h-170zM842 637q0 -346 4 -518h49
q129 0 202.5 74t73.5 221t-68.5 219t-213.5 72h-47v-68z" />
    <glyph glyph-name="uni042B" unicode="&#x42b;" horiz-adv-x="1974" 
d="M68 1235v111h651v-111l-150 -16q-4 -139 -4 -400q94 4 144 4q129 0 229 -32.5t159.5 -88.5t89.5 -126.5t30 -151.5q0 -67 -15.5 -125t-56.5 -114.5t-105 -96t-169.5 -64t-241.5 -24.5h-561v111l149 16q4 166 4 508v76q0 338 -4 508zM1245 1235v111h662v-111l-156 -16
q-4 -166 -4 -508v-74q0 -342 4 -510l156 -16v-111h-662v111l154 16q4 166 4 508v76q0 340 -4 508zM565 637q0 -346 4 -518h49q121 0 191 74t70 219q0 148 -66.5 220.5t-202.5 72.5h-45v-68z" />
    <glyph glyph-name="uni042C" unicode="&#x42c;" horiz-adv-x="1280" 
d="M68 1235v111h665v-111l-164 -16q-4 -141 -4 -400q110 4 168 4q133 0 234.5 -32.5t161 -89t89 -126.5t29.5 -151q0 -54 -11 -101.5t-36.5 -97t-72 -89t-112 -71t-162.5 -48.5t-218 -17h-567v111l149 16q4 166 4 508v76q0 338 -4 508zM565 637q0 -346 4 -518h56
q135 0 209.5 76t74.5 219q0 147 -66 219t-210 72q-33 0 -68 -3v-65z" />
    <glyph glyph-name="uni042D" unicode="&#x42d;" horiz-adv-x="1241" 
d="M70 63l-9 318h152l59 -266q75 -37 177 -37q92 0 157.5 25.5t114.5 87t74.5 169t29.5 265.5h-325l-25 -166h-119v448h119l25 -162h323q-4 151 -30 254t-75 161t-112 82t-151 24q-100 0 -179 -33l-57 -268h-158l9 315q187 104 411 104q154 0 279.5 -43.5t217.5 -129.5
t142.5 -223t50.5 -314q0 -146 -35 -264.5t-97 -201t-149.5 -139t-190 -82.5t-220.5 -26q-216 0 -409 102z" />
    </font>
</defs>
</svg>
